Ванда/Вижн / WandaVision [S01] (2021) WEB-DL 720p | LostFilm

Ответить на тему
Статистика раздачи [Обновить пиров]
Размер:  10,9 GB   |    Зарегистрирован:  3 года 1 месяц   |    .torrent скачан:  73 раза
Раздают:  54  [  0 KB/s  ]   Качают:  29  [  0 KB/s  ]   Подробная статистика пиров
   
 
Автор Сообщение

ExPlayer ®

Оффлайн

Медали


Пол: Мужской

Стаж: 9 лет 6 месяцев

Наличие запрета:

Сообщений: 60281

Откуда: korsars.pro

Отдача: 100 Mb/s

Загрузка: 100 Mb/s



AdGuard VPN - бесплатный, надёжный и быстрый VPN

Создавать темы 25-Апр-2021 17:00

[Цитировать]

[img=right]https://a.Radikal больше не существует. Перезалейте изображение на другой хостинг!/a33/2101/24/9ee47d54b82a.jpg[/img]
Название: Ванда/Вижн
Оригинальное название: WandaVision
Год выхода: 2021
Жанр: Фантастика, фэнтези, боевик, драма, комедия, приключения
Режиссер: Мэтт Шекман
В ролях: Пол Беттани, Элизабет Олсен, Кэт Деннингс, Кэтрин Хан, Рэндолл Пак, Шэйн Беренг, Грэй Гриффин, Тейона Паррис, Джолин Парди, Эмма Колфилд, Азиф Али, Брайан Брайтман, Аарон Гиллеспи, Шон Маклин, Фред Меламед, Энтони Молинари, Дебра Джо Рапп, Чейз Мэйсер, Винни Коста, Эмбер Мартинес и другие.
О фильме:
Ванда и Вижн — молодожены, живущие в идиллическом городке Вествью. Поначалу жизнь героев кажется им идеальной, но постепенно они понимают, что это не так.

Дата мировой премьеры: 15 января 2021 года
Страна: США
Студия: Marvel Studios Inc.
Продолжительность: ~ 00:27:00 серия
Перевод: Профессиональный (многоголосый закадровый) | LostFilm
Кодек: MPEG-4 AVC/x.264
Качество: WEB-DL 720p
Видео: 1280x720 (16:9), 23,976 fps, ~3146 kbps
Аудио # 1: AC3, 48 kHz, 6 ch, 640 kbps | LostFilm
Аудио # 2: E-AC3 JOC, 48 kHz, 6 ch, 768 kbps | английский
Субтитры: Русские (Forced, Full |«Где тексты, Лебовски?»), английские (SDH)
Реклама: отсутствует
Семпл

Релиз:

Релиз: Grandfather61
Дорожка 1 получена наложением выделенных голосов от «LostFilm» на центр оригинального AC3.
Монтаж, работа со звуком: Grandfather61

MediaInfo:

Общее
Уникальный идентификатор : 110718903290305269953591960384079380691 (0x534BAF64650A24FF217D1CD9B08BC0D3)
Полное имя : G:WandaVision.S01.720p.WEB-DL.LostFilmWandaVision.S01E01.720p.WEB-DL.LostFilm.mkv
Формат : Matroska
Версия формата : Version 4
Размер файла : 865 Мбайт
Продолжительность : 26 м. 33 с.
Режим общего битрейта : Переменный
Общий поток : 4 557 Кбит/сек
Дата кодирования : UTC 2021-01-18 05:09:57
Программа кодирования : mkvmerge v52.0.0 ('Secret For The Mad') 64-bit
Библиотека кодирования : libebml v1.4.1 + libmatroska v1.6.2
Видео
Идентификатор : 1
Формат : AVC
Формат/Информация : Advanced Video Codec
Профиль формата : High@L3.1
Настройки формата : CABAC / 4 Ref Frames
Параметр CABAC формата : Да
Параметр RefFrames формата : 4 кадра
Идентификатор кодека : V_MPEG4/ISO/AVC
Продолжительность : 26 м. 33 с.
Вид битрейта : Переменный
Битрейт : 3 146 Кбит/сек
Максимальный битрейт : 6 375 Кбит/сек
Ширина : 1 280 пикселей
Высота : 720 пикселей
Соотношение сторон : 16:9
Режим частоты кадров : Постоянный
Частота кадров : 23,976 (24000/1001) кадра/сек
Цветовое пространство : YUV
Субдискретизация насыщенности : 4:2:0
Битовая глубина : 8 бит
Тип развёртки : Прогрессивная
Бит/(Пиксели*Кадры) : 0.142
Размер потока : 597 Мбайт (69%)
Язык : English
Default : Да
Forced : Нет
Цветовой диапазон : Limited
Основные цвета : BT.709
Характеристики трансфера : BT.709
Коэффициенты матрицы : BT.709
Аудио #1
Идентификатор : 2
Формат : AC-3
Формат/Информация : Audio Coding 3
Коммерческое название : Dolby Digital
Идентификатор кодека : A_AC3
Продолжительность : 26 м. 33 с.
Вид битрейта : Постоянный
Битрейт : 640 Кбит/сек
Каналы : 6 каналов
Channel layout : L R C LFE Ls Rs
Частота : 48,0 КГц
Частота кадров : 31,250 кадров/сек (1536 SPF)
Метод сжатия : С потерями
Размер потока : 122 Мбайт (14%)
Заголовок : LostFilm
Язык : Russian
Default : Да
Forced : Нет
Аудио #2
Идентификатор : 3
Формат : E-AC-3 JOC
Формат/Информация : Enhanced AC-3 with Joint Object Coding
Коммерческое название : Dolby Digital Plus with Dolby Atmos
Идентификатор кодека : A_EAC3
Продолжительность : 26 м. 33 с.
Вид битрейта : Постоянный
Битрейт : 768 Кбит/сек
Каналы : 6 каналов
Channel layout : L R C LFE Ls Rs
Частота : 48,0 КГц
Частота кадров : 31,250 кадров/сек (1536 SPF)
Метод сжатия : С потерями
Размер потока : 146 Мбайт (17%)
Заголовок : English
Язык : English
Default : Нет
Forced : Нет
Complexity index : 16
Number of dynamic objects : 15
Bed channel count : 1 канал
Bed channel configuration : LFE
Текст #1
Идентификатор : 4
Формат : UTF-8
Идентификатор кодека : S_TEXT/UTF8
Идентификатор кодека/Информация : UTF-8 Plain Text
Продолжительность : 23 м. 9 с.
Битрейт : 9 бит/сек
Count of elements : 34
Размер потока : 1,58 Кбайт (0%)
Заголовок : forced
Язык : Russian
Default : Да
Forced : Да
Текст #2
Идентификатор : 5
Формат : UTF-8
Идентификатор кодека : S_TEXT/UTF8
Идентификатор кодека/Информация : UTF-8 Plain Text
Продолжительность : 21 м. 3 с.
Битрейт : 143 бит/сек
Count of elements : 424
Размер потока : 22,2 Кбайт (0%)
Язык : Russian
Default : Нет
Forced : Нет
Текст #3
Идентификатор : 6
Формат : UTF-8
Идентификатор кодека : S_TEXT/UTF8
Идентификатор кодека/Информация : UTF-8 Plain Text
Продолжительность : 21 м. 0 с.
Битрейт : 92 бит/сек
Count of elements : 448
Размер потока : 14,2 Кбайт (0%)
Заголовок : English (SDH)
Язык : English
Default : Нет
Forced : Нет
-[thumb]https://c.Radikal больше не существует. Перезалейте изображение на другой хостинг!/c02/2101/95/d26a2626f430.png[/thumb][thumb]https://c.Radikal больше не существует. Перезалейте изображение на другой хостинг!/c26/2101/f3/03c904d39911.png[/thumb][thumb]https://b.Radikal больше не существует. Перезалейте изображение на другой хостинг!/b12/2101/71/b011a85a09b0.png[/thumb][thumb]https://a.Radikal больше не существует. Перезалейте изображение на другой хостинг!/a26/2101/9e/837cac74bf07.png[/thumb]-Релиз от: Grandfather61
AdGuard VPN - бесплатный, надёжный и быстрый VPN
[korsars.pro].t38948.torrent 
Торрент: Зарегистрирован [ 2021-04-25 17:00 ] · 4C0F1361223F65D4E22DD217944281985778B3B8

Скачать .torrent

Размер .torrent файла 29 KB

Статус: проверено
.torrent скачан: 73 раз
Размер: 10,9 GB
Правила

AdGuard VPN - бесплатный, надёжный и быстрый VPN
Похожие темы

Вы не зарегистрированы на нашем сайте. Вам доступна для скачивания только часть контента. Чтобы увидеть весь контент сайта, пожалуйста, зарегистрируйтесь.

Дешевый и быстрый Сидбокс
У Вас отключен VIP статус, поэтому Вам показывается реклама на сайте. Вы можете поддержать наш ресурс и приобрести VIP статус, тем самым отключив показ рекламы на сайте, а ещё VIP пользователи получают 15 инвайтов, которыми можно поделиться с друзьями или знакомыми.
Дешевый и быстрый Сидбокс
AdGuard - Интернет без рекламы и слежки в любом браузере
[Профиль] [ЛС]
Показать сообщения:    
Ответить на тему

Текущее время: 28-Май 04:42

Часовой пояс: UTC + 4



Вы не можете начинать темы
Вы не можете отвечать на сообщения
Вы не можете редактировать свои сообщения
Вы не можете удалять свои сообщения
Вы не можете голосовать в опросах
Вы не можете прикреплять файлы к сообщениям
Вы можете скачивать файлы
Анализ сайта korsars.pro Яндекс.Метрика

Материал для зрителей старше 18 летВсе материалы на сайте получены из свободных источников в сети Интернет и представлены исключительно для личного (некоммерческого) использования лицами старше 18 лет.