Ванда/Вижн / WandaVision [01x01-08 из 09] (2021) WEB-DL 1080p | Локализованная версия | Flarrow Films

Ответить на тему
Статистика раздачи [Обновить пиров]
Размер:  26,05 GB   |    Зарегистрирован:  2 дня 22 часа   |    .torrent скачан:  70 раз
Раздают:  24  [  870 KB/s  ]   Качают:  16  [  521 KB/s  ]   Подробная статистика пиров
 
   
 
 
Автор Сообщение

flarrowfilms ®

Оффлайн

Медали
VIPДруг трекераСупер Мега Контер Квейк


Пол: Не указан

Стаж: 11 месяцев 9 дней

Наличие запрета:

Сообщений: 71

Отдача: 5 Mb/s

Загрузка: 5 Mb/s

Нажми


Скачать Adguard бесплатно

Создавать темы 23-Янв-2021 16:34

[Цитировать]

Информация о фильме
Название: Ванда/Вижн
Оригинальное название: WandaVision
Год выхода: 2021
Жанр: фантастика, фэнтези, боевик, драма, комедия
Режиссер: Мэтт Шекман
В ролях: Пол Беттани, Элизабет Олсен, Кэт Деннингс, Кэтрин Хан, Рэндолл Пак, Шэйн Беренг, Грэй Гриффин, Тейона Паррис, Джолин Парди, Азиф Али
О фильме:
Ванда и Вижн — молодожены, живущие в идиллическом городке Вествью. Поначалу жизнь героев кажется им идеальной, но постепенно они понимают, что это не так.
После финальной битвы с Таносом Алая Ведьма пытается совладать со своими способностями и воскресить возлюбленного Вижна.

Страна: США
Продолжительность: 00:26:33 (серия)
Перевод: Профессиональный (многоголосый, закадровый) | Flarrow Films
Роли озвучивали: Лена Лунина, Семён Евсиков, Константин Погодаев, Маргарита Щелкунова, Евгений Леонов, Ахилл Намазов, Рута Новикова, Анастасия Скачкова, Алина Лихачева, Виталий Кашеваров, Тимиркан Сиюхов, Елена Шеремет
Файл
Формат: MKV
Кодек: MPEG-4 AVC
Качество: WEB-DL 1080p (локализованный видеоряд)
Видео: 1920х1080, ~ 13.9 Mb/s, 23.976, 8 bits
Звук: AC-3, 320 kb/s, 2 channels, 48.0 kHz
Субтитры: русские (отключаемые)-

MediaInfo

General
Unique ID : 242838637737530329171744857622870269405 (0xB6B1053969891EC8B066746828D89DDD)
Complete name : C:\Flarrow\WandaVision.S01.1080p.Flarrow.Films\WandaVision.S01E01.1080p.Flarrow.Films .mkv
Format : Matroska
Format version : Version 4
File size : 2.63 GiB
Duration : 26 min 34 s
Overall bit rate mode : Variable
Overall bit rate : 14.2 Mb/s
Encoded date : UTC 2021-01-22 13:43:39
Writing application : mkvmerge v32.0.0 ('Astral Progressions') 64-bit
Writing library : libebml v1.3.7 + libmatroska v1.5.0
Video
ID : 1
Format : AVC
Format/Info : Advanced Video Codec
Format profile : Main@L4.1
Format settings : CABAC / 2 Ref Frames
Format settings, CABAC : Yes
Format settings, Reference : 2 frames
Format settings, GOP : M=3, N=23
Codec ID : V_MPEG4/ISO/AVC
Duration : 26 min 33 s
Bit rate mode : Variable
Bit rate : 13.9 Mb/s
Maximum bit rate : 19.0 Mb/s
Width : 1 920 pixels
Height : 1 080 pixels
Display aspect ratio : 16:9
Frame rate mode : Constant
Frame rate : 23.976 (24000/1001) FPS
Color space : YUV
Chroma subsampling : 4:2:0
Bit depth : 8 bits
Scan type : Progressive
Bits/(Pixel*Frame) : 0.279
Stream size : 2.57 GiB (98%)
Language : Russian
Default : Yes
Forced : No
Audio
ID : 2
Format : AC-3
Format/Info : Audio Coding 3
Commercial name : Dolby Digital
Codec ID : A_AC3
Duration : 26 min 34 s
Bit rate mode : Constant
Bit rate : 320 kb/s
Channel(s) : 2 channels
Channel layout : L R
Sampling rate : 48.0 kHz
Frame rate : 31.250 FPS (1536 SPF)
Compression mode : Lossy
Stream size : 60.8 MiB (2%)
Language : Russian
Service kind : Complete Main
Default : Yes
Forced : No
Text
ID : 3
Format : UTF-8
Codec ID : S_TEXT/UTF8
Codec ID/Info : UTF-8 Plain Text
Duration : 20 min 57 s
Bit rate : 145 b/s
Count of elements : 424
Stream size : 22.3 KiB (0%)
Language : Russian
Default : Yes
Forced : No
--Релиз от: Flarrow Films
Примечание: Без интро Flarrow Films- - -28.02.2021 обновлено. добавлена 8 серия.

[korsars.pro].t35337.torrent 
Торрент: Зарегистрирован [ 2021-02-28 01:07 ] · E8D93A9614005E6DCCF6BBC2D9DA376626300E89

Скачать .torrent

Размер .torrent файла 66 KB

Статус: проверено
.torrent скачан: 70 раз
Размер: 26,05 GB
Правила
4udaki(23-Янв-21), Woitler(28-Фев-21)

Вы не зарегистрированы на нашем сайте. Вам доступна для скачивания только часть контента. Чтобы увидеть весь контент сайта, пожалуйста, зарегистрироруйтесь.

У Вас отключен VIP статус, поэтому Вам показывается реклама на сайте. Вы можете поддержать наш ресурс и приобрести VIP статус, тем самым отключив показ рекламы на сайте, а ещё VIP пользователи получают возможность

смотреть фильмы, сериалы и аниме онлайн в HD качестве

(не распространяется на раздел Flarrow Films), а так же получить 5 инвайтов, которыми можно поделиться с друзьями или знакомыми.
[Профиль] [ЛС]
Показать сообщения:    
Ответить на тему

Текущее время: 03-Мар 00:07

Часовой пояс: UTC + 4



Вы не можете начинать темы
Вы не можете отвечать на сообщения
Вы не можете редактировать свои сообщения
Вы не можете удалять свои сообщения
Вы не можете голосовать в опросах
Вы не можете прикреплять файлы к сообщениям
Вы можете скачивать файлы
Анализ сайта korsars.pro Яндекс.Метрика