Ванда/Вижн / WandaVision [S01] (2021) WEB-DL 1080p | AlexFilm

Ответить на тему
Статистика раздачи [Обновить пиров]
Размер:  19,36 GB   |    Зарегистрирован:  2 года 10 месяцев   |    .torrent скачан:  20 раз
Раздают:  41  [  0 KB/s  ]   Качают:  26  [  0 KB/s  ]   Подробная статистика пиров
   
 
Автор Сообщение

ExPlayer ®

Оффлайн

Медали


Пол: Мужской

Стаж: 9 лет 6 месяцев

Наличие запрета:

Сообщений: 60281

Откуда: korsars.pro

Отдача: 100 Mb/s

Загрузка: 100 Mb/s



AdGuard VPN - бесплатный, надёжный и быстрый VPN

Создавать темы 05-Июл-2021 21:00

[Цитировать]

[img=right]https://b.Radikal больше не существует. Перезалейте изображение на другой хостинг!/b29/2101/49/d1f228a4d01a.png[/img]
Информация о сериале
Название: Ванда/Вижн
Оригинальное название: WandaVision
Год выхода: 2021
Жанр: Фантастика, фэнтези, боевик, драма, комедия, приключения
Режиссёр: Мэтт Шекман
В ролях: Пол Беттани, Элизабет Олсен, Кэт Деннингс, Кэтрин Хан, Рэндолл Пак, Шэйн Беренг, Грэй Гриффин, Тейона Паррис, Джолин Парди, Эмма Колфилд, Азиф Али, Брайан Брайтман, Аарон Гиллеспи, Шон Маклин, Фред Меламед, Энтони Молинари, Дебра Джо Рапп, Чейз Мэйсер, Винни Коста, Эмбер Мартинес и др.
Описание:
Ванда и Вижн — молодожёны, живущие в идиллическом городке Вествью. Поначалу жизнь героев кажется им идеальной, но постепенно они понимают, что это не так.

Страна: США
Студия: Disney+
Продолжительность: ~00:30:00
Перевод: Профессиональный (многоголосый закадровый) | AlexFilm
Файл
Кодек: AVC
Качество: WEB-DL 1080p
Видео: 1920x1080 (16:9), 23.976 fps, ~6500 Kbps
Аудио №1: AC3, 48,0 kHz, 6 ch, 384 kbps | AlexFilm
Аудио №2: AC3, 48,0 kHz, 6 ch, 640 kbps | Original
Аудио №3: EAC3 JOC, 48,0 kHz, 6 ch, 768 kbps | Original
Субтитры: Русские (Forced, Full |«PhysKids»|, английские (SDH)
Реклама: Отсутствует
Исходник: WandaVision.S01.1080p.DSNP.WEB-DL.DDP5.1.x264-TOMMY

Список серий:

01. Filmed Before a Live Studio Audience
02. Don't Touch That Dial
03. Now in Color
04. We Interrupt This Program
05. On a Very Special Episode…
06. All-New Halloween Spooktacular!
07. Breaking the Fourth Wall
08. Previously On
09. The Series Finale

MediaInfo:

Complete name : D:ShowsWandaVision_(s01)_AlexFilm_1080pWandaVision.2021.S01E01.Episode.1.1080p.DSNP.WEB-DL.DDP5.1.x.264-TOMMY_EniaHD.mkv
Format : Matroska
Format version : Version 4
File size : 1.53 GiB
Duration : 26 min 33 s
Overall bit rate mode : Variable
Overall bit rate : 8 239 kb/s
Encoded date : UTC 2021-01-16 16:02:35
Writing application : mkvmerge v31.0.0 ('Dolores In A Shoestand') 64-bit
Writing library : libebml v1.3.6 + libmatroska v1.4.9
Video
ID : 1
Format : AVC
Format/Info : Advanced Video Codec
Format profile : High@L4
Format settings : CABAC / 4 Ref Frames
Format settings, CABAC : Yes
Format settings, Reference : 4 frames
Codec ID : V_MPEG4/ISO/AVC
Duration : 26 min 33 s
Bit rate mode : Variable
Bit rate : 6 444 kb/s
Maximum bit rate : 12.7 Mb/s
Width : 1 920 pixels
Height : 1 080 pixels
Display aspect ratio : 16:9
Frame rate mode : Constant
Frame rate : 23.976 (24000/1001) FPS
Color space : YUV
Chroma subsampling : 4:2:0
Bit depth : 8 bits
Scan type : Progressive
Bits/(Pixel*Frame) : 0.130
Stream size : 1.19 GiB (78%)
Title : Release by EniaHD
Default : Yes
Forced : No
Color range : Limited
Color primaries : BT.709
Transfer characteristics : BT.709
Matrix coefficients : BT.709
Audio #1
ID : 2
Format : AC-3
Format/Info : Audio Coding 3
Commercial name : Dolby Digital
Codec ID : A_AC3
Duration : 26 min 33 s
Bit rate mode : Constant
Bit rate : 384 kb/s
Channel(s) : 6 channels
Channel layout : L R C LFE Ls Rs
Sampling rate : 48.0 kHz
Frame rate : 31.250 FPS (1536 SPF)
Compression mode : Lossy
Stream size : 72.9 MiB (5%)
Title : AlexFilm
Language : Russian
Service kind : Complete Main
Default : Yes
Forced : No
Audio #2
ID : 3
Format : AC-3
Format/Info : Audio Coding 3
Commercial name : Dolby Digital
Codec ID : A_AC3
Duration : 26 min 33 s
Bit rate mode : Constant
Bit rate : 640 kb/s
Channel(s) : 6 channels
Channel layout : L R C LFE Ls Rs
Sampling rate : 48.0 kHz
Frame rate : 31.250 FPS (1536 SPF)
Compression mode : Lossy
Stream size : 122 MiB (8%)
Language : English
Service kind : Complete Main
Default : No
Forced : No
Audio #3
ID : 4
Format : E-AC-3 JOC
Format/Info : Enhanced AC-3 with Joint Object Coding
Commercial name : Dolby Digital Plus with Dolby Atmos
Codec ID : A_EAC3
Duration : 26 min 33 s
Bit rate mode : Constant
Bit rate : 768 kb/s
Channel(s) : 6 channels
Channel layout : L R C LFE Ls Rs
Sampling rate : 48.0 kHz
Frame rate : 31.250 FPS (1536 SPF)
Compression mode : Lossy
Stream size : 146 MiB (9%)
Language : English
Service kind : Complete Main
Default : No
Forced : No
Complexity index : 16
Number of dynamic objects : 15
Bed channel count : 1 channel
Bed channel configuration : LFE
Text #1
ID : 5
Format : UTF-8
Codec ID : S_TEXT/UTF8
Codec ID/Info : UTF-8 Plain Text
Duration : 20 min 59 s
Bit rate : 1 b/s
Count of elements : 6
Stream size : 223 Bytes (0%)
Title : Forced
Language : Russian
Default : Yes
Forced : No
Text #2
ID : 6
Format : UTF-8
Codec ID : S_TEXT/UTF8
Codec ID/Info : UTF-8 Plain Text
Duration : 21 min 10 s
Bit rate : 139 b/s
Count of elements : 398
Stream size : 21.6 KiB (0%)
Title : Full |PhysKids|
Language : Russian
Default : No
Forced : No
Text #3
ID : 7
Format : UTF-8
Codec ID : S_TEXT/UTF8
Codec ID/Info : UTF-8 Plain Text
Duration : 21 min 0 s
Bit rate : 92 b/s
Count of elements : 448
Stream size : 14.2 KiB (0%)
Title : SDH
Language : English
Default : No
Forced : No
-[thumb]https://b.Radikal больше не существует. Перезалейте изображение на другой хостинг!/b37/2101/cb/ee5a937aa5a4.png[/thumb][thumb]https://d.Radikal больше не существует. Перезалейте изображение на другой хостинг!/d05/2102/bc/ec6e4f6200f3.png[/thumb][thumb]https://c.Radikal больше не существует. Перезалейте изображение на другой хостинг!/c33/2102/4e/921f374e4435.png[/thumb][thumb]https://d.Radikal больше не существует. Перезалейте изображение на другой хостинг!/d21/2102/c8/8da3a70c263a.png[/thumb]
AdGuard VPN - бесплатный, надёжный и быстрый VPN
[korsars.pro].t42448.torrent 
Торрент: Зарегистрирован [ 2021-07-05 21:00 ] · B7B45D74C8D927EC2DEC6B608A25E0292AB23E67

Скачать .torrent

Размер .torrent файла 26 KB

Статус: проверено
.torrent скачан: 20 раз
Размер: 19,36 GB
Правила
Jordan7(09-Июн-22)

AdGuard VPN - бесплатный, надёжный и быстрый VPN
Похожие темы

Вы не зарегистрированы на нашем сайте. Вам доступна для скачивания только часть контента. Чтобы увидеть весь контент сайта, пожалуйста, зарегистрируйтесь.

Дешевый и быстрый Сидбокс
У Вас отключен VIP статус, поэтому Вам показывается реклама на сайте. Вы можете поддержать наш ресурс и приобрести VIP статус, тем самым отключив показ рекламы на сайте, а ещё VIP пользователи получают 15 инвайтов, которыми можно поделиться с друзьями или знакомыми.
Дешевый и быстрый Сидбокс
AdGuard - Интернет без рекламы и слежки в любом браузере
[Профиль] [ЛС]
Показать сообщения:    
Ответить на тему

Текущее время: 28-Май 04:24

Часовой пояс: UTC + 4



Вы не можете начинать темы
Вы не можете отвечать на сообщения
Вы не можете редактировать свои сообщения
Вы не можете удалять свои сообщения
Вы не можете голосовать в опросах
Вы не можете прикреплять файлы к сообщениям
Вы можете скачивать файлы
Анализ сайта korsars.pro Яндекс.Метрика

Материал для зрителей старше 18 летВсе материалы на сайте получены из свободных источников в сети Интернет и представлены исключительно для личного (некоммерческого) использования лицами старше 18 лет.