Локи / Loki [S01] (2021) WEB-DLRip | LostFilm

Ответить на тему
Статистика раздачи [Обновить пиров]
Размер:  3,68 GB   |    Зарегистрирован:  1 год 8 месяцев   |    .torrent скачан:  3 раза
Раздают:  119  [  0 KB/s  ]   Качают:  8  [  0 KB/s  ]   Подробная статистика пиров
   
 
Автор Сообщение

4udaki ®

Оффлайн

Медали


Пол: Мужской

Стаж: 9 лет 5 месяцев

Наличие запрета:

Сообщений: 58650

Откуда: korsars.pro

Отдача: 100 Mb/s

Загрузка: 100 Mb/s



AdGuard VPN - бесплатный, надёжный и быстрый VPN

Создавать темы 28-Июл-2022 13:00

[Цитировать]

Информация о сериале
Название: Локи
Оригинальное название: Loki
Год выпуска: 2021
Жанр: фантастика, фэнтези, боевик, приключения
Режиссер: Кейт Херрон
В ролях: Том Хиддлстон, Софи Ди Мартино, Ричард Э. Грант, Гугу Эмбата-Ро, Вунми Моссаку, Оуэн Уилсон, Эрика Коулмэн, Саша Лэйн, Джон Ливайн, Люсиус Бастон мл.
О сериале: Самый желанный фантастический сольник Marvel — о боге обмана и хитрости Локи — прибыл на Disney+ третьим, но сразу оправдал ожидания. Не такой сюрреалистичный и замысловатый, как «ВандаВижен», не столь зверски серьезный, как «Сокол и Зимний Солдат», он объединяет в себе авантюрную комедию о приключениях двух друзей-противников и самые любопытные сай-фай концепции в истории жанра. В основе сюжета «Локи» — путешествие во времени и дебют новой организации в КВМ — Управления временными измерениями. Стилистически шоу напоминает «Рика и Морти», «Бразилию», «Бегущего по лезвию», выдуманные миры Филипа К. Дика и Дугласа Адамса. При этом, как всегда у Marvel, все максимально динамично, развлекательно и интенсивно. Главной движущей силой остается харизма Тома Хиддлстона и обаяние мятежного асгардца Локи, который, несмотря на всю свою изворотливость, остается добрым малым.
В «Финале» команда Мстителей разработала отличный план по предотвращению катастрофы, в которую вверг Землю безумный титан Танос. Однако была в нем одна загвоздка — младший брат Тора, бог плутовства и трикстер Локи (Том Хиддлстон). Воспользовавшись заварушкой с участием Халка, он схватил Тессеракт и исчез с ним в неизвестном направлении. Однако его поимка — не проблема для агентов таинственного Управления временными измерениями. Они давно следили за привносящим хаос в стройное течение времени Локи, но эта выходка возмутила их настолько, что бог теперь вынужден предстать перед судом могущественных Хранителей времени и понести суровое наказание. Выход из ситуации ему предлагает агент Мобиус М. Мобиус (Оуэн Уилсон), приставленный к Локи куратором. Ему простят грехи, если он согласится отправиться с Мобиусом в путешествие во времени, где затерялся киллер, жестоко убивающий агентов Управления. Локи колеблется — некогда ему размениваться на идиотов-бюрократов, не понимающих всей силы камней бесконечности. Он хочет править миром, и не каким-то там Хранителям решать его судьбу. Однако Мобиус показывает Локи нечто, способное даже у этого заносчивого наглеца выбить почву из-под ног. Теперь трикстеру нужно решить, что делать дальше — продолжить свои хитроумные игры, бросить вызов самому времени или все же попытаться найти искупление… 

Страна: США
Студия: Marvel Studios Inc.
Продолжительность: ~00:50:00 серия
Перевод: Профессиональный (многоголосый, закадровый) LostFilm
Файл
Качество: WEB-DLRip
Формат: AVI
Видео: 720x304 at 24.000 fps, XviD, ~1700 kbps avg
Аудио: Russian: 48 kHz, MP3, 2/0 (L,R) ch, ~128 kbps avg |Многоголосый закадровый, LostFilm|
Субтитры: Russian (Forced |Hardsub|)
***Примечание: Без рекламы

MediaInfo

Общее
Полное имя : Loki.S01E01.avi
Формат : AVI
Формат/Информация : Audio Video Interleave
Размер файла : 673 Мбайт
Продолжительность : 51 м. 30 с.
Общий поток : 1 827 Кбит/сек
Программа кодирования : VirtualDubMod 1.5.10.3 (build 2550/release)
Видео
Идентификатор : 0
Формат : MPEG-4 Visual
Профиль формата : Advanced Simple@L5
Настройки формата : BVOP1 / Custom Matrix
Параметр BVOP формата : 1
Параметр QPel формата : Нет
Параметр GMC формата : Без точки перехода
Параметр матрицы формата : Выборочная
Идентификатор кодека : XVID
Идентификатор кодека/Подсказка : XviD
Продолжительность : 51 м. 30 с.
Битрейт : 1 693 Кбит/сек
Ширина : 720 пикселей
Высота : 304 пикселя
Соотношение сторон : 2,35:1
Частота кадров : 24,000 кадра/сек
Цветовое пространство : YUV
Субдискретизация насыщенности : 4:2:0
Битовая глубина : 8 бит
Тип развёртки : Прогрессивная
Метод сжатия : С потерями
Бит/(Пиксели*Кадры) : 0.322
Размер потока : 624 Мбайт (93%)
Библиотека кодирования : XviD 73
Аудио
Идентификатор : 1
Формат : MPEG Audio
Версия формата : Version 1
Профиль формата : Layer 3
Настройки формата : Joint stereo / MS Stereo
Идентификатор кодека : 55
Идентификатор кодека/Подсказка : MP3
Продолжительность : 50 м. 21 с.
Вид битрейта : Постоянный
Битрейт : 128 Кбит/сек
Каналы : 2 канала
Частота : 48,0 КГц
Метод сжатия : С потерями
Размер потока : 46,1 Мбайт (7%)
Выравнивание : Соединение по промежуткам
Продолжительность промежутка : 43 мс. (1,02 видеокадр)
Время предзагрузки промежутка : 504 мс.

Раздача ведется путем добавления новых серий

Когда раздача ведётся путём добавления новых серий, при каждом добавлении создётся новый торрент. Чтобы начать докачку новой серии, пользователям необходимо сделать следующее:
(1) остановить скачивание,
(2) удалить старый торрент у себя из клиента (старые серии удалять не надо),
(3) скачать новый торрент и запустить его у себя в клиенте вместо старого, при этом указать клиенту путь в старую папку, куда и должно происходить скачивание новых серий.
Ваш клиент при этом должен произвести хеширование (проверку) старой папки (если не производит сам - помогите ему сделать это), и будет докачивать только те серии, которых у вас ещё нет. Старые серии при этом не удаляются, а продолжают раздаваться!
Eсли вы уже удалили старые серии, то предотвратить повторную закачку старых серий можно, отжав галочку в соответствующих местах при запуске нового торрента. По возможности, желательно не удалять старые серии как можно дольше, чтобы релизер не столько продолжал раздавать старые серии, а смог сконцентрироваться на новых.
AdGuard VPN - бесплатный, надёжный и быстрый VPN
[korsars.pro].t63229.torrent 
Торрент: Зарегистрирован [ 2022-07-28 13:00 ] · 940DB36B7BCAF3C9968C053862FAD32FFAF9AE26

Скачать .torrent

Размер .torrent файла 19 KB

Статус: проверено
.torrent скачан: 3 раз
Размер: 3,68 GB
Правила
AdGuard VPN - бесплатный, надёжный и быстрый VPN
Похожие темы

Вы не зарегистрированы на нашем сайте. Вам доступна для скачивания только часть контента. Чтобы увидеть весь контент сайта, пожалуйста, зарегистрируйтесь.

Дешевый и быстрый Сидбокс
У Вас отключен VIP статус, поэтому Вам показывается реклама на сайте. Вы можете поддержать наш ресурс и приобрести VIP статус, тем самым отключив показ рекламы на сайте, а ещё VIP пользователи получают 15 инвайтов, которыми можно поделиться с друзьями или знакомыми.
Дешевый и быстрый Сидбокс
[Профиль] [ЛС]
Показать сообщения:    
Ответить на тему

Текущее время: 18-Апр 17:33

Часовой пояс: UTC + 4



Вы не можете начинать темы
Вы не можете отвечать на сообщения
Вы не можете редактировать свои сообщения
Вы не можете удалять свои сообщения
Вы не можете голосовать в опросах
Вы не можете прикреплять файлы к сообщениям
Вы можете скачивать файлы
Анализ сайта korsars.pro Яндекс.Метрика

Материал для зрителей старше 18 летВсе материалы на сайте получены из свободных источников в сети Интернет и представлены исключительно для личного (некоммерческого) использования лицами старше 18 лет.