Локи / Loki [S02] (2023) WEB-DL 720p | HDrezka Studio

Ответить на тему
Статистика раздачи [Обновить пиров]
Размер:  7,84 GB   |    Зарегистрирован:  5 месяцев 6 дней   |    .torrent скачан:  3 раза
Раздают:  2557  [  0 KB/s  ]   Качают:  1765  [  0 KB/s  ]   Подробная статистика пиров
   
 
Автор Сообщение

4udaki ®

Оффлайн

Медали


Пол: Мужской

Стаж: 9 лет 5 месяцев

Наличие запрета:

Сообщений: 58650

Откуда: korsars.pro

Отдача: 100 Mb/s

Загрузка: 100 Mb/s



AdGuard VPN - бесплатный, надёжный и быстрый VPN

Создавать темы 11-Ноя-2023 21:00

[Цитировать]


Информация о фильме
Название: Локи
Оригинальное название: Loki
Год выхода: 2023
Жанр: фантастика, фэнтези, боевик, приключения
Режиссер: Кейт Херрон, Джастин Бенсон, Аарон Мурхед
В ролях: Том Хиддлстон, Оуэн Уилсон, Гугу Эмбата-Ро, Вунми Моссаку, Эрика Коулмэн, Софи Ди Мартино, Ричард Э. Грант, Джон Ливайн, Аарон Билнер, Саша Лэйн. и другие.
О фильме:
Манипулятор, лжец, лицемер, говорящий со всеми на разных языках, увертливый Локи получил свой личный сериал на стриминговой платформе Disney+. Главного героя, как и в фильмах про «Мстителей», сыграет Том Хиддлстон. Все были уверены, что с коварным злодеем Локи покончено, ведь именно его гибелью начинался фильм "Мстители: Война бесконечности". Но на то он и признанный бог обмана, чтобы объявиться именно тогда, когда все уже считали его мертвым. Приемный сын Одина и двоюродный брат Тора, Локи давно прославился своим коварными проделками. Искусный манипулятор, умный и хитрый, он привык делать только то, что приносит ему выгоду. С детства хорошо владеющий магией и разговаривающий на всех языках, Локи ловко управляет людьми, извлекая для себя пользу. С юных лет он завидовал своему брату Тору и всегда мечтал только об одном - получить власть над всем миром. Именно постоянная зависть и толкнула Локи на гнусные поступки, из-за которых он и стал изгоем для всех и нажил массу врагов. Но его хитрость и изворотливость всегда помогали ему выпутываться из самых опасных ситуаций. Даже когда все были уверены в его гибели, Локи удалось спастись, переместившись в пространстве и прихватив с собой бесценный артефакт. Именно благодаря этому артефакту, злодей обрел способность свободно путешествовать во времени. Но каждое его путешествие влечет за собой изменение истории, а значит, и изменение судеб миллионов людей. Коварного Локи нужно остановить, пока его выходки не привели к необратимому, но сделать это будет не просто.

Страна: США
Продолжительность: ~00:45:00 серия
Перевод: Профессиональный (многоголосый закадровый) HDrezka Studio
Файл
Кодек: MKV
Качество: WEB-DL 720p
Видео: AVC, 1280x720 (16:9), 2920 kbps (0.132 b/px), 24.000 fps
Звук:
Аудио #1: AC3, 192 kbps (CBR), 48.0 KHz (16 bits), 2 ch, Russian - HDrezka Studio
Аудио #2: Е-AC3, 768 kbps (CBR), 48.0 KHz (16 bits), 6 ch, English
Субтитры:
Русские (Forced , Full (Где тексты, Лебовски?)), английские
РЕКЛАМЫ НЕТ

MediaInfo

Общее
Уникальный идентификатор : 9401744293219486378911747250525830710 (0x712B5C8388C3A1B533C903740EFFE36)
Полное имя : E:сериалыLoki.S02.720pLoki.S02E01.720p.mkv
Формат : Matroska
Версия формата : Version 4
Размер файла : 1,23 Гбайт
Продолжительность : 45 м. 15 с.
Режим общего битрейта : Переменный
Общий поток : 3 882 Кбит/сек
Дата кодирования : UTC 2023-10-07 05:34:06
Программа кодирования : mkvmerge v35.0.0 ('All The Love In The World') 64-bit
Библиотека кодирования : libebml v1.3.9 + libmatroska v1.5.2
Видео
Идентификатор : 1
Формат : AVC
Формат/Информация : Advanced Video Codec
Профиль формата : High@L3.1
Настройки формата : CABAC / 4 Ref Frames
Параметр CABAC формата : Да
Параметр RefFrames формата : 4 кадра
Идентификатор кодека : V_MPEG4/ISO/AVC
Продолжительность : 45 м. 15 с.
Вид битрейта : Переменный
Битрейт : 2 920 Кбит/сек
Максимальный битрейт : 6 375 Кбит/сек
Ширина : 1 280 пикселей
Высота : 720 пикселей
Соотношение сторон : 16:9
Режим частоты кадров : Постоянный
Частота кадров : 24,000 кадра/сек
Цветовое пространство : YUV
Субдискретизация насыщенности : 4:2:0
Битовая глубина : 8 бит
Тип развёртки : Прогрессивная
Бит/(Пиксели*Кадры) : 0.132
Размер потока : 945 Мбайт (75%)
Default : Да
Forced : Нет
Цветовой диапазон : Limited
Основные цвета : BT.709
Характеристики трансфера : BT.709
Коэффициенты матрицы : BT.709
Аудио #1
Идентификатор : 2
Формат : AC-3
Формат/Информация : Audio Coding 3
Коммерческое название : Dolby Digital
Идентификатор кодека : A_AC3
Продолжительность : 45 м. 15 с.
Вид битрейта : Постоянный
Битрейт : 192 Кбит/сек
Каналы : 2 канала
Channel layout : L R
Частота : 48,0 КГц
Частота кадров : 31,250 кадров/сек (1536 SPF)
Метод сжатия : С потерями
Размер потока : 62,2 Мбайт (5%)
Заголовок : HDR
Язык : Russian
Service kind : Complete Main
Default : Да
Forced : Нет
Аудио #2
Идентификатор : 3
Формат : E-AC-3 JOC
Формат/Информация : Enhanced AC-3 with Joint Object Coding
Коммерческое название : Dolby Digital Plus with Dolby Atmos
Идентификатор кодека : A_EAC3
Продолжительность : 45 м. 15 с.
Вид битрейта : Постоянный
Битрейт : 768 Кбит/сек
Каналы : 6 каналов
Channel layout : L R C LFE Ls Rs
Частота : 48,0 КГц
Частота кадров : 31,250 кадров/сек (1536 SPF)
Метод сжатия : С потерями
Размер потока : 249 Мбайт (20%)
Язык : English
Service kind : Complete Main
Default : Нет
Forced : Нет
Complexity index : 16
Number of dynamic objects : 15
Bed channel count : 1 канал
Bed channel configuration : LFE
Текст #1
Идентификатор : 4
Формат : UTF-8
Идентификатор кодека : S_TEXT/UTF8
Идентификатор кодека/Информация : UTF-8 Plain Text
Продолжительность : 41 м. 22 с.
Битрейт : 1 бит/сек
Count of elements : 10
Размер потока : 415 байт (0%)
Заголовок : fors
Язык : Russian
Default : Да
Forced : Нет
Текст #2
Идентификатор : 5
Формат : UTF-8
Идентификатор кодека : S_TEXT/UTF8
Идентификатор кодека/Информация : UTF-8 Plain Text
Продолжительность : 42 м. 32 с.
Битрейт : 104 бит/сек
Count of elements : 581
Размер потока : 32,6 Кбайт (0%)
Язык : Russian
Default : Нет
Forced : Нет
Текст #3
Идентификатор : 6
Формат : UTF-8
Идентификатор кодека : S_TEXT/UTF8
Идентификатор кодека/Информация : UTF-8 Plain Text
Продолжительность : 42 м. 39 с.
Битрейт : 68 бит/сек
Count of elements : 627
Размер потока : 21,3 Кбайт (0%)
Заголовок : English (SDH)
Язык : English
Default : Нет
Forced : Нет

Скриншоты

AdGuard VPN - бесплатный, надёжный и быстрый VPN
[korsars.pro].t93619.torrent 
Торрент: Зарегистрирован [ 2023-11-11 21:00 ] · 2209971AA98A505445992748768D990244346125

Скачать .torrent

Размер .torrent файла 21 KB

Статус: проверено
.torrent скачан: 3 раз
Размер: 7,84 GB
Правила
AdGuard VPN - бесплатный, надёжный и быстрый VPN
Похожие темы

Вы не зарегистрированы на нашем сайте. Вам доступна для скачивания только часть контента. Чтобы увидеть весь контент сайта, пожалуйста, зарегистрируйтесь.

Дешевый и быстрый Сидбокс
У Вас отключен VIP статус, поэтому Вам показывается реклама на сайте. Вы можете поддержать наш ресурс и приобрести VIP статус, тем самым отключив показ рекламы на сайте, а ещё VIP пользователи получают 15 инвайтов, которыми можно поделиться с друзьями или знакомыми.
Дешевый и быстрый Сидбокс
[Профиль] [ЛС]
Показать сообщения:    
Ответить на тему

Текущее время: 18-Апр 17:44

Часовой пояс: UTC + 4



Вы не можете начинать темы
Вы не можете отвечать на сообщения
Вы не можете редактировать свои сообщения
Вы не можете удалять свои сообщения
Вы не можете голосовать в опросах
Вы не можете прикреплять файлы к сообщениям
Вы можете скачивать файлы
Анализ сайта korsars.pro Яндекс.Метрика

Материал для зрителей старше 18 летВсе материалы на сайте получены из свободных источников в сети Интернет и представлены исключительно для личного (некоммерческого) использования лицами старше 18 лет.