Президент, пришло время для битвы! / Shachou, Battle no Jikan Desu! [S01] (2020) WEBRip 1080p от KORSARS.INFO | StudioBand

Ответить на тему
Статистика раздачи [Обновить пиров]
Размер:  5,37 GB   |    Зарегистрирован:  1 год 3 месяца   |    .torrent скачан:  90 раз
Раздают:  6  [  0 KB/s  ]   Качают:  12  [  0 KB/s  ]   Подробная статистика пиров
 
   
 
 
Автор Сообщение

4udaki ®

Онлайн

Медали


Пол: Мужской

Стаж: 6 лет 11 месяцев

Наличие запрета:

Сообщений: 11569

Откуда: korsars.pro

Отдача: 2 Mb/s

Загрузка: 20 Mb/s

Нажми


Скачать Adguard бесплатно

Создавать темы 05-Апр-2020 19:27

[Цитировать]

Президент, пришло время для битвы! / Shachou, Battle no Jikan Desu!-Год выпуска: 2020
Страна:
Япония
Жанр: экшен, приключения,фэнтези
Продолжительность: ~ 00:24:00 (серия)
Перевод: Профессиональный (многоголосый, закадровый) | StudioBand [Wakanim]
Режиссёр: Хиронори Икэсита
Субтитры: отсутствуют-Рейтинг:
-Описание:
Когда-то мир представлял собой безжизненную пустошь, но однажды с неба спустилась богиня, открыв гигантские Врата. За ними люди обнаружили чудесную энергию, которая была способна наполнить мир жизнью. Со временем вокруг Врат образовался город, а сбор энергии в подземелье за Вратами стал уделом профессионалов из добывающих компаний. Директором одной из таких компаний становится главный герой Минато. © Wakanim-Качество: WEBRip 1080p
Формат: MKV (H.264)
Видео: 1920x1080, 1 511 kb/s, 23.976 FPS, 8 bits
Аудио RUS: AC-3, ~ 320 kb/s, 2 channels, 48.0 kHz-

MediaInfo

1-я серия
General
Unique ID : 14600477489055044987290020687106193203 (0xAFBF31E38033E581DF2FC1DE186B733)
Complete name : [KORSARS]_Shachou.Battle.no.Jikan.Desu.[S01E01].WEBRip.1080p_[StudioBand].mkv
Format : Matroska
Format version : Version 4
File size : 321 MiB
Duration : 24 min 0 s
Overall bit rate : 1 868 kb/s
Encoded date : UTC 2020-04-05 15:09:06
Writing application : HandBrake 1.3.1 2020010400
Writing library : Lavf58.29.100
ErrorDetectionType : Per level 1
Video
ID : 1
Format : AVC
Format/Info : Advanced Video Codec
Format profile : Main@L4
Format settings : CABAC / 4 Ref Frames
Format settings, CABAC : Yes
Format settings, Reference : 4 frames
Codec ID : V_MPEG4/ISO/AVC
Duration : 23 min 59 s
Bit rate : 1 511 kb/s
Width : 1 920 pixels
Height : 1 080 pixels
Display aspect ratio : 16:9
Frame rate mode : Constant
Frame rate : 23.976 (24000/1001) FPS
Color space : YUV
Chroma subsampling : 4:2:0
Bit depth : 8 bits
Scan type : Progressive
Bits/(Pixel*Frame) : 0.030
Stream size : 259 MiB (81%)
Writing library : x264 core 157 r2935 545de2f
Encoding settings : cabac=1 / ref=3 / deblock=1:0:0 / analyse=0x1:0x111 / me=hex / subme=7 / psy=1 / psy_rd=1.00:0.00 / mixed_ref=1 / me_range=16 / chroma_me=1 / trellis=1 / 8x8dct=0 / cqm=0 / deadzone=21,11 / fast_pskip=1 / chroma_qp_offset=-2 / threads=9 / lookahead_threads=1 / sliced_threads=0 / nr=0 / decimate=1 / interlaced=0 / bluray_compat=0 / constrained_intra=0 / bframes=3 / b_pyramid=2 / b_adapt=1 / b_bias=0 / direct=1 / weightb=1 / open_gop=0 / weightp=2 / keyint=240 / keyint_min=24 / scenecut=40 / intra_refresh=0 / rc_lookahead=40 / rc=crf / mbtree=1 / crf=22.0 / qcomp=0.60 / qpmin=0 / qpmax=69 / qpstep=4 / vbv_maxrate=20000 / vbv_bufsize=25000 / crf_max=0.0 / nal_hrd=none / filler=0 / ip_ratio=1.40 / aq=1:1.00
Default : Yes
Forced : No
Color range : Limited
Color primaries : BT.709
Transfer characteristics : BT.709
Matrix coefficients : BT.709
Audio
ID : 2
Format : AC-3
Format/Info : Audio Coding 3
Commercial name : Dolby Digital
Codec ID : A_AC3
Duration : 24 min 0 s
Bit rate mode : Constant
Bit rate : 320 kb/s
Channel(s) : 2 channels
Channel layout : L R
Sampling rate : 48.0 kHz
Frame rate : 31.250 FPS (1536 SPF)
Compression mode : Lossy
Delay relative to video : -5 ms
Stream size : 54.9 MiB (17%)
Title : Stereo
Service kind : Complete Main
Default : Yes
Forced : No
-
2-я серия
General
Unique ID : 291116615700664178268377544539814044432 (0xDB03054FC8B7BFB6DAB432C5F6712310)
Complete name : [KORSARS]_Shachou.Battle.no.Jikan.Desu.[S01E02].WEBRip.1080p_[StudioBand].mkv
Format : Matroska
Format version : Version 4
File size : 454 MiB
Duration : 23 min 40 s
Overall bit rate : 2 679 kb/s
Encoded date : UTC 2020-04-12 15:06:04
Writing application : HandBrake 1.3.1 2020010400
Writing library : Lavf58.29.100
ErrorDetectionType : Per level 1
Video
ID : 1
Format : AVC
Format/Info : Advanced Video Codec
Format profile : Main@L4
Format settings : CABAC / 4 Ref Frames
Format settings, CABAC : Yes
Format settings, Reference : 4 frames
Codec ID : V_MPEG4/ISO/AVC
Duration : 23 min 40 s
Bit rate : 2 306 kb/s
Width : 1 920 pixels
Height : 1 080 pixels
Display aspect ratio : 16:9
Frame rate mode : Constant
Frame rate : 23.976 (24000/1001) FPS
Color space : YUV
Chroma subsampling : 4:2:0
Bit depth : 8 bits
Scan type : Progressive
Bits/(Pixel*Frame) : 0.046
Stream size : 390 MiB (86%)
Writing library : x264 core 157 r2935 545de2f
Encoding settings : cabac=1 / ref=3 / deblock=1:0:0 / analyse=0x1:0x111 / me=hex / subme=7 / psy=1 / psy_rd=1.00:0.00 / mixed_ref=1 / me_range=16 / chroma_me=1 / trellis=1 / 8x8dct=0 / cqm=0 / deadzone=21,11 / fast_pskip=1 / chroma_qp_offset=-2 / threads=9 / lookahead_threads=1 / sliced_threads=0 / nr=0 / decimate=1 / interlaced=0 / bluray_compat=0 / constrained_intra=0 / bframes=3 / b_pyramid=2 / b_adapt=1 / b_bias=0 / direct=1 / weightb=1 / open_gop=0 / weightp=2 / keyint=240 / keyint_min=24 / scenecut=40 / intra_refresh=0 / rc_lookahead=40 / rc=crf / mbtree=1 / crf=20.0 / qcomp=0.60 / qpmin=0 / qpmax=69 / qpstep=4 / vbv_maxrate=20000 / vbv_bufsize=25000 / crf_max=0.0 / nal_hrd=none / filler=0 / ip_ratio=1.40 / aq=1:1.00
Default : Yes
Forced : No
Color range : Limited
Color primaries : BT.709
Transfer characteristics : BT.709
Matrix coefficients : BT.709
Audio
ID : 2
Format : AC-3
Format/Info : Audio Coding 3
Commercial name : Dolby Digital
Codec ID : A_AC3
Duration : 23 min 40 s
Bit rate mode : Constant
Bit rate : 320 kb/s
Channel(s) : 2 channels
Channel layout : L R
Sampling rate : 48.0 kHz
Frame rate : 31.250 FPS (1536 SPF)
Compression mode : Lossy
Delay relative to video : -5 ms
Stream size : 54.2 MiB (12%)
Title : Stereo
Service kind : Complete Main
Default : Yes
Forced : No
-

Скриншоты

-Донат (на будущие анимешки ^_^)- -28.06.2020 года обновлено. Добавлена 11-12я серии. Сезон окончен.-
[korsars.pro].t27721.torrent 
Торрент: Зарегистрирован [ 2020-06-28 20:37 ] · 649EFE202E4B49E1043889FF9BB6B20C003E0B57

Скачать .torrent

Размер .torrent файла 15 KB

Статус: проверено
.torrent скачан: 90 раз
Размер: 5,37 GB
Правила
Rentgen(05-Апр-20), loe3df(26-Апр-20)
Похожие темы

Вы не зарегистрированы на нашем сайте. Вам доступна для скачивания только часть контента. Чтобы увидеть весь контент сайта, пожалуйста, зарегистрироруйтесь.

Дешевый и быстрый Сидбокс

Ключи и пин-коды

Игры, Кредитные карты, IP-телефония, Интернет провайдеры, Мобильная связь, Спутниковое ТВ

Электронные книги

Бизнес и экономика, Дом, быт, семья, досуг, Санкт-Петербург, Компьютеры и интернет, Наука и образование, Техническая литература, Юридическая литература

Цифровые товары

iTunes & App Store, Базы данных, Дизайн, Доступ к ресурсам, Kарты продления, ключи, Фотографии, Шаблоны для сайтов

Программное обеспечение

Безопасность, Игры, PC, Интернет, Мобильная связь, Программирование, Продвижение сайтов (SEO), Утилиты
У Вас отключен VIP статус, поэтому Вам показывается реклама на сайте. Вы можете поддержать наш ресурс и приобрести VIP статус, тем самым отключив показ рекламы на сайте, а ещё VIP пользователи получают возможность

смотреть аниме онлайн в HD качестве

(не распространяется на раздел Flarrow Films), а так же получить 5 инвайтов, которыми можно поделиться с друзьями или знакомыми.
Дешевый и быстрый Сидбокс

Ключи и пин-коды

Игры, Кредитные карты, IP-телефония, Интернет провайдеры, Мобильная связь, Спутниковое ТВ

Электронные книги

Бизнес и экономика, Дом, быт, семья, досуг, Санкт-Петербург, Компьютеры и интернет, Наука и образование, Техническая литература, Юридическая литература

Цифровые товары

iTunes & App Store, Базы данных, Дизайн, Доступ к ресурсам, Kарты продления, ключи, Фотографии, Шаблоны для сайтов

Программное обеспечение

Безопасность, Игры, PC, Интернет, Мобильная связь, Программирование, Продвижение сайтов (SEO), Утилиты


Последний раз редактировалось: 4udaki (2020-07-03 13:00), всего редактировалось 10 раз(а)
[Профиль] [ЛС]

Rentgen

Оффлайн

Медали


Пол: Не указан

Стаж: 1 год 8 месяцев

Наличие запрета:

Сообщений: 103

Отдача: не определено

Загрузка: не определено

Нажми


Скачать Adguard бесплатно

Создавать темы 11-Май-2020 02:47 (спустя 1 месяц 5 дней)

[Цитировать]

Уже вышло 6 эпизодов, а я даже первый просмотреть не в силах.
Пролистав по кадрам предположил, что мне такое вряд ли зайдёт.
[Профиль] [ЛС]
Показать сообщения:    
Ответить на тему

Текущее время: 23-Окт 00:19

Часовой пояс: UTC + 4



Вы не можете начинать темы
Вы не можете отвечать на сообщения
Вы не можете редактировать свои сообщения
Вы не можете удалять свои сообщения
Вы не можете голосовать в опросах
Вы не можете прикреплять файлы к сообщениям
Вы можете скачивать файлы
Анализ сайта korsars.pro Яндекс.Метрика