Президент студсовета - горничная! / Kaichou wa Maid-sama! [S01 + Спешл] (2010) BDRip от Deadmauvlad | Animedia

Ответить на тему
Статистика раздачи [Обновить пиров]
Размер:  8,53 GB   |    Зарегистрирован:  1 год 5 месяцев   |    .torrent скачан:  7 раз
Раздают:  9  [  0 KB/s  ]   Качают:  9  [  0 KB/s  ]   Подробная статистика пиров
 
   
 
 
Автор Сообщение

deadmauvlad ®

Оффлайн

Медали
VIP


Пол: Мужской

Стаж: 1 год 6 месяцев

Наличие запрета:

Сообщений: 65

Откуда: Siberian Republic

Отдача: не определено

Загрузка: не определено

Нажми


Скачать Adguard бесплатно

Создавать темы 07-Май-2020 21:24

[Цитировать]


Информация о фильме
Название: Президент студсовета - горничная!
Оригинальное название: Kaichou wa Maid-sama!
Год выхода: c 02.04.2010 по 24.09.2010
Жанр: комедия, романтика, школа, сёдзё
Автор оригинала: Фудзивара Хиро
Снято по манге: Староста-горничная
Режиссер: Сакурай Хироаки
В главных ролях: Аюми Фудзимура, Нобухико Окамото, Мицухиро Итики, Такума Тэрасима, Ёсимаса Хосоя, Аки Тоёсаки, Кана Асуми, Кадзуёси Сиибаси, Кана Ханадзава,Ю Кобаяси
Описание: Мужская частная школа Сэйка, славная бесчинствами своих воспитанников, когда-то наводила ужас на всю округу. Для «смягчения нравов» в ней ввели совместное обучение, но результат пока очень и очень сомнителен. Впрочем, Мисаки Аюдзава – спортсменка, отличница и первая в истории Сэйки девушка-президент школьного совета – твердо решила изменить положение и принести в храм науки порядок и дисциплину. Неудивительно, что бескомпромиссная Мисаки в среде парней считается тираном и мужененавистницей, а среди немногочисленных учениц – идеалом и единственной надеждой. Но, как водится в аниме, не все так просто… Семью Аюдзавы бросил отец, оставив на память значительный долг. Чтобы помочь матери и поднять младшую сестренку, девушка вынуждена подрабатывать в мэйд-кафе на другом конце города, разумеется, всячески скрывая это от школы. Но все тайное становится явным, и Мисаки прямо на работе встречается с Такуми Усуем, не просто одноклассником, а одним из школьных идолов. Однако разоблачения не последовало, хотя пережить «президенту-горничной» пришлось немало. И чего же хочет Такуми, который второй год наблюдает школьную жизнь как бы со стороны? Кто смотрел «Карэкано» и «Спецкласс А», тот знает, чего они все хотят!
-Страна: Япония
Студия: J.C. Staff
Продолжительность: 26 серий x ~00:25:00 + 01 Серия x ~ 00:14:00
Перевод: Любительский (Двухголосый, закадровый) Eladiel & Zendos (Animedia)
Файл
Качество: BDRip | Исходник: BDRemux 1080p thx NuLLsoft |
Формат: AVI
Кодек: XviD
Аудио кодек: AC3
Видео: 720x400 (16:9), 23.976 fps, 1 415 kb/s (0.205 bit/pixel)
Аудио #1: AC-3, 48.0 kHz, 2 ch, 192 kb/s, CBR | | Animedia
Аудио #2: AC-3, 48.0 kHz, 2 ch, 192 kb/s, CBR | | Japan (Оригинал)
Русские Субтитры: Есть в раздаче

MediaInfo:

General
Complete name :[Deadmau- RAWS] Президент.горничная.S01.RUS.JAP.BDRip.Deadmauvlad.Ep.01.avi
Format : AVI
Format/Info : Audio Video Interleave
File size : 314 MiB
Duration : 24 min 13 s
Overall bit rate : 1 814 kb/s
Movie name : [Deadmau- RAWS] Президент.горничная.S01.RUS.JAP.BDRip.Deadmauvlad.Ep.01
Director : Encoder by Deadmauvlad
Genre : комедия, романтика
Writing application : VirtualDubMod 1.5.10.3 | www.virtualdub-fr.org || (build 2550/release)
Original source form/Name : Аниме
Copyright : Encoder by Deadmauvlad
Comment : Encoder by Deadmauvlad
Video
ID : 0
Format : MPEG-4 Visual
Format profile : Advanced Simple@L5
Format settings : BVOP1 / Custom Matrix
Format settings, BVOP : 1
Format settings, QPel : No
Format settings, GMC : No warppoints
Format settings, Matrix : Custom
Codec ID : XVID
Codec ID/Hint : XviD
Duration : 24 min 13 s
Bit rate : 1 415 kb/s
Width : 720 pixels
Height : 400 pixels
Display aspect ratio : 16:9
Frame rate : 23.976 (24000/1001) FPS
Color space : YUV
Chroma subsampling : 4:2:0
Bit depth : 8 bits
Scan type : Progressive
Compression mode : Lossy
Bits/(Pixel*Frame) : 0.205
Stream size : 245 MiB (78%)
Writing library : XviD 73
Audio #1
ID : 1
Format : AC-3
Format/Info : Audio Coding 3
Commercial name : Dolby Digital
Codec ID : 2000
Duration : 24 min 13 s
Bit rate mode : Constant
Bit rate : 192 kb/s
Channel(s) : 2 channels
Channel layout : L R
Sampling rate : 48.0 kHz
Frame rate : 31.250 FPS (1536 SPF)
Bit depth : 16 bits
Compression mode : Lossy
Stream size : 33.3 MiB (11%)
Alignment : Split accross interleaves
Interleave, duration : 42 ms (1.00 video frame)
Interleave, preload duration : 500 ms
Service kind : Complete Main
Audio #2
ID : 2
Format : AC-3
Format/Info : Audio Coding 3
Commercial name : Dolby Digital
Codec ID : 2000
Duration : 24 min 13 s
Bit rate mode : Constant
Bit rate : 192 kb/s
Channel(s) : 2 channels
Channel layout : L R
Sampling rate : 48.0 kHz
Frame rate : 31.250 FPS (1536 SPF)
Bit depth : 16 bits
Compression mode : Lossy
Stream size : 33.3 MiB (11%)
Alignment : Split accross interleaves
Interleave, duration : 42 ms (1.00 video frame)
Interleave, preload duration : 500 ms
Service kind : Complete Main

Список эпизодов

Эпизоды:
01. Misaki is a Maid!
02. A Maid Even at the School Festival
03. What Color is Misaki? Her Own Color?
04. Net Idol Aoi-chan
05. House-sitting for the First Time
06. Man, Ayuzawa School!
07. Enter Miyabigaoka Academy`s Student Council President
08. Misaki, to Miyabigaoka Academy
09. Even the Peach Boy Becomes a Maid
10. Sakura`s Love for Indies
11. Close in on Usui Takumi`s Secret!
12. A Maid Even at the Sports Festival
13. Moron, Deliquent and Hero
14. 1-7 Kanou Soutarou
15. A Bespectacled Bunny in a Tour Around the School
16. Maid Latte at the Sea Resort
17. Usui, Surrounded By the Enemy
18. Even the Maid`s a Footman
19. Re-paired In The Footman Audition
20. The Vice-President`s a Prince!? Aoi and the Happy Friends
21. Usui`s Rival? Shintani Hinata
22. Playing Tag at the Outdoor School
23. Maid Latte Sweet Feast
24. Melting Things Away with Latte Magic
25. Hinata, Misaki and Usui
26. You`re Really Sly Ayuzawa, Usui You Idiot!
Спешл:
01. It`s an Extra

Скриншоты

Релиз / Автор рипа: Deadmauvlad ^_^
[korsars.pro].t28565.torrent 
Торрент: Зарегистрирован [ 2020-05-07 21:24 ] · 4167C2DEF0E670B8E6DADFF313E455079793BC68

Скачать .torrent

Размер .torrent файла 19 KB

Статус: проверено
.torrent скачан: 7 раз
Размер: 8,53 GB
Правила
4udaki(08-Май-20)
Похожие темы

Вы не зарегистрированы на нашем сайте. Вам доступна для скачивания только часть контента. Чтобы увидеть весь контент сайта, пожалуйста, зарегистрироруйтесь.

Дешевый и быстрый Сидбокс

Ключи и пин-коды

Игры, Кредитные карты, IP-телефония, Интернет провайдеры, Мобильная связь, Спутниковое ТВ

Электронные книги

Бизнес и экономика, Дом, быт, семья, досуг, Санкт-Петербург, Компьютеры и интернет, Наука и образование, Техническая литература, Юридическая литература

Цифровые товары

iTunes & App Store, Базы данных, Дизайн, Доступ к ресурсам, Kарты продления, ключи, Фотографии, Шаблоны для сайтов

Программное обеспечение

Безопасность, Игры, PC, Интернет, Мобильная связь, Программирование, Продвижение сайтов (SEO), Утилиты
У Вас отключен VIP статус, поэтому Вам показывается реклама на сайте. Вы можете поддержать наш ресурс и приобрести VIP статус, тем самым отключив показ рекламы на сайте, а ещё VIP пользователи получают возможность

смотреть аниме онлайн в HD качестве

(не распространяется на раздел Flarrow Films), а так же получить 5 инвайтов, которыми можно поделиться с друзьями или знакомыми.
Дешевый и быстрый Сидбокс

Ключи и пин-коды

Игры, Кредитные карты, IP-телефония, Интернет провайдеры, Мобильная связь, Спутниковое ТВ

Электронные книги

Бизнес и экономика, Дом, быт, семья, досуг, Санкт-Петербург, Компьютеры и интернет, Наука и образование, Техническая литература, Юридическая литература

Цифровые товары

iTunes & App Store, Базы данных, Дизайн, Доступ к ресурсам, Kарты продления, ключи, Фотографии, Шаблоны для сайтов

Программное обеспечение

Безопасность, Игры, PC, Интернет, Мобильная связь, Программирование, Продвижение сайтов (SEO), Утилиты
[Профиль] [ЛС]
Показать сообщения:    
Ответить на тему

Текущее время: 22-Окт 23:58

Часовой пояс: UTC + 4



Вы не можете начинать темы
Вы не можете отвечать на сообщения
Вы не можете редактировать свои сообщения
Вы не можете удалять свои сообщения
Вы не можете голосовать в опросах
Вы не можете прикреплять файлы к сообщениям
Вы можете скачивать файлы
Анализ сайта korsars.pro Яндекс.Метрика