Бэймакс! / Baymax! [S01] (2022) WEB-DL 1080p | Flarrow Films

Ответить на тему
Статистика раздачи [Обновить пиров]
Размер:  1,83 GB   |    Зарегистрирован:  1 год 10 месяцев   |    .torrent скачан:  49 раз
Раздают:  61  [  0 KB/s  ]   Качают:  12  [  0 KB/s  ]   Подробная статистика пиров
   
 
Автор Сообщение

flarrowfilms ®

Оффлайн

Медали
VIPДруг трекераСупер Мега Контер Квейк


Пол: Не указан

Стаж: 4 года 1 месяц

Наличие запрета:

Сообщений: 184

Отдача: 5 Mb/s

Загрузка: 5 Mb/s



AdGuard VPN - бесплатный, надёжный и быстрый VPN

Создавать темы 05-Июл-2022 15:54

[Цитировать]

Информация о фильме
Название: Бэймакс!
Оригинальное название: Baymax!
Год выхода: 2022
Жанр: мультфильм, фантастика, боевик, комедия, приключения, семейный
Режиссер: Дэн Абрахам, Марк Кеннеди, Лисса Трейман
В ролях: Скотт Эдсит, Райан Поттер, Дичен Лакмэн, Сара-Николь Роблз, Карлос Ферро, Энджел Паркер, Брэндон Скотт, Майя Рудольф, Эмили Курода, Лилимар
О фильме:
В этой истории речь пойдет о действительно очень интересной и необычной жизненной ситуации в которую попадает крайне симпатичный робот-медик по имени Бэймакс. Этот робот на самом деле очень полезен каждому человеку, ведь он в свое время сумел пройти через огромное количество самых различных испытаний и стал настоящим героем этого города.

Страна: США
Продолжительность: 00:07:26
Перевод: Профессиональный (многоголосый, закадровый) | Flarrow Films
Роли озвучивали: Денис Кузьмичёв, Ахилл Намазов, Рина Чернышова, Антонина Лазаревская, Татьяна Тарасова и Семён Евсиков.
Файл
Формат: MKV
Кодек: MPEG-4 AVC
Качество: WEB-DL 1080
Видео: 1920х1080, ~ 4 713 kb/s, 24.000 FPS, 8 bits
Аудио: AC-3, 192 kb/s, 2 channels, 48.0 kHz
Субтитры: русские (отключаемые UTF-8)-

MediaInfo

General
Unique ID : 113267698093751635418622162950023392359 (0x553690AD9BCCE2043014567ABBB5AC67)
Complete name : C:\Flarrow\Baymax.S01.1080p.Flarrow.Films\Baymax.S01E01.mkv
Format : Matroska
Format version : Version 4
File size : 261 MiB
Duration : 7 min 26 s
Overall bit rate mode : Variable
Overall bit rate : 4 906 kb/s
Encoded date : UTC 2022-07-03 17:55:30
Writing application : mkvmerge v32.0.0 ('Astral Progressions') 64-bit
Writing library : libebml v1.3.7 + libmatroska v1.5.0
Video
ID : 1
Format : AVC
Format/Info : Advanced Video Codec
Format profile : High@L4
Format settings : CABAC / 4 Ref Frames
Format settings, CABAC : Yes
Format settings, Reference : 4 frames
Codec ID : V_MPEG4/ISO/AVC
Duration : 7 min 26 s
Bit rate mode : Variable
Bit rate : 4 713 kb/s
Maximum bit rate : 12.7 Mb/s
Width : 1 920 pixels
Height : 1 080 pixels
Display aspect ratio : 16:9
Frame rate mode : Constant
Frame rate : 24.000 FPS
Color space : YUV
Chroma subsampling : 4:2:0
Bit depth : 8 bits
Scan type : Progressive
Bits/(Pixel*Frame) : 0.095
Stream size : 251 MiB (96%)
Language : English
Default : Yes
Forced : No
Color range : Limited
Color primaries : BT.709
Transfer characteristics : BT.709
Matrix coefficients : BT.709
Audio
ID : 2
Format : AC-3
Format/Info : Audio Coding 3
Commercial name : Dolby Digital
Codec ID : A_AC3
Duration : 7 min 26 s
Bit rate mode : Constant
Bit rate : 192 kb/s
Channel(s) : 2 channels
Channel layout : L R
Sampling rate : 48.0 kHz
Frame rate : 31.250 FPS (1536 SPF)
Compression mode : Lossy
Stream size : 10.2 MiB (4%)
Service kind : Complete Main
Default : Yes
Forced : No
Text
ID : 3
Format : UTF-8
Codec ID : S_TEXT/UTF8
Codec ID/Info : UTF-8 Plain Text
Duration : 7 min 24 s
Bit rate : 70 b/s
Count of elements : 85
Stream size : 3.82 KiB (0%)
Default : Yes
Forced : No
--Релиз от: Flarrow Films
Примечание: Релиз без рекламы.- -
AdGuard VPN - бесплатный, надёжный и быстрый VPN
[korsars.pro].t60113.torrent 
Торрент: Зарегистрирован [ 2022-07-05 15:54 ] · 52F1313731151A5D2373D537235AD63A1DCF4062

Скачать .torrent

Размер .torrent файла 19 KB

Статус: проверено
.torrent скачан: 49 раз
Размер: 1,83 GB
Правила
4udaki(05-Июл-22)

AdGuard VPN - бесплатный, надёжный и быстрый VPN
Похожие темы

Вы не зарегистрированы на нашем сайте. Вам доступна для скачивания только часть контента. Чтобы увидеть весь контент сайта, пожалуйста, зарегистрируйтесь.

Дешевый и быстрый Сидбокс
У Вас отключен VIP статус, поэтому Вам показывается реклама на сайте. Вы можете поддержать наш ресурс и приобрести VIP статус, тем самым отключив показ рекламы на сайте, а ещё VIP пользователи получают 15 инвайтов, которыми можно поделиться с друзьями или знакомыми.
Дешевый и быстрый Сидбокс
AdGuard - Интернет без рекламы и слежки в любом браузере
[Профиль] [ЛС]
Показать сообщения:    
Ответить на тему

Текущее время: 21-Май 11:08

Часовой пояс: UTC + 4



Вы не можете начинать темы
Вы не можете отвечать на сообщения
Вы не можете редактировать свои сообщения
Вы не можете удалять свои сообщения
Вы не можете голосовать в опросах
Вы не можете прикреплять файлы к сообщениям
Вы можете скачивать файлы
Анализ сайта korsars.pro Яндекс.Метрика

Материал для зрителей старше 18 летВсе материалы на сайте получены из свободных источников в сети Интернет и представлены исключительно для личного (некоммерческого) использования лицами старше 18 лет.