Бэймакс! / Baymax! [S01] (2022) WEB-DL-HEVC 2160p | 4K | HDR | by legsik69 | D, P

Ответить на тему
Статистика раздачи [Обновить пиров]
Размер:  6,2 GB   |    Зарегистрирован:  1 год 6 месяцев   |    .torrent скачан:  3 раза
Раздают:  20  [  0 KB/s  ]   Качают:  4  [  0 KB/s  ]   Подробная статистика пиров
   
 
Автор Сообщение

legsik69 ®

Оффлайн

Медали


Пол: Мужской

Стаж: 1 год 7 месяцев

Наличие запрета:

Сообщений: 19

Откуда: Украина

Отдача: 10 Mb/s

Загрузка: 10 Mb/s



AdGuard VPN - бесплатный, надёжный и быстрый VPN

Создавать темы 15-Авг-2022 13:11

[Цитировать]

Бэймакс! / Baymax!-Год выпуска: 2022
Страна:
США
Жанр: Мультсериал, фантастика, боевик, комедия, приключения, семейный
Продолжительность: 6 x ~ 00:08:00
Перевод: Дублированный, профессиональный многоголосый
Режиссёры: Дэн Абрахам, Марк Кеннеди, Лисса Трейман
В ролях: Майя Рудольф, Скотт Эдсит-Рейтинг:
-О фильме:
Бэймакс всегда с особенным трепетом и интересом относился к окружающим людям, стараясь приносить им пользу в любой сложной ситуации. Являясь своеобразным медицинским консультантом, он разрабатывал систему тренировок, рассказывал о навыках оказания первой помощи и запросто соглашался стать научным пособием для маленьких детей. Окружающие любили большого добряка, который никогда не требовал награды за свои услуги, веря в существование настоящей дружбы и делая все для поддержки людей. Неповоротливость, растерянность и сомнения в правильности собственных поступков периодически стали великана в тупик. Но он каждый раз ловко выбирался из передряг, прибегая к помощи товарищей. Они закрывали глаза на возможные промахи необычного помощника, искренне старающегося оказываться нужным и полезным в самых запутанных историях. Многочисленные приключения и новые открытия манили необычных соратников, не давя им возможности равнодушно сидеть на месте. Но они настолько сильно привыкли к необычности, что давно перестали обращать внимание на присутствие инновационного создания.
Качество: WEB-DL (2160p)
Формат: MKV (MPEG-H HEVC)
Видео: 16.3 Мбит/с, 3840х2160, 24 кадр/с, 10 бит
Звук:
Внимание! Релиз БЕЗ рекламы!
Аудио #1: AC3, 48 kHz, 2 ch, 384 kbps | Дублированный | Red Head Sound | RUS |
Аудио #2: AC3, 48 kHz, 2 ch, 192 kbps | MVO | Flarrow Films | RUS |
Аудио #3: AC3, 48 kHz, 2 ch, 192 kbps | MVO | TVShows | RUS |
Аудио #4: AAC, 48 kHz, 2 ch, 159 kbps | MVO | UFDUB.com | UKR |
Аудио #5: E-AC3, 48 kHz, 6 ch, 768 kbps | Оригинал | ENG |
Субтитры: Русские (Full), английские (SDH)-

MediaInfo

Формат : Matroska
Версия формата : Version 4
Размер файла : 950 Мбайт
Продолжительность : 7 м. 27 с.
Общий поток : 17,8 Мбит/сек
Название фильма : 01. Бэймакс! (2022) | by legsik69
Дата кодирования : UTC 2022-08-13 11:00:39
Программа кодирования : mkvmerge v69.0.0 ('Day And Age') 64-bit
Библиотека кодирования : libebml v1.4.2 + libmatroska v1.6.4
Обложка : Yes
Attachments : Cover.jpg
Видео
Идентификатор : 1
Формат : HEVC
Формат/Информация : High Efficiency Video Coding
Профиль формата : Main 10@L5@High
HDR format : SMPTE ST 2086, HDR10 compatible
Идентификатор кодека : V_MPEGH/ISO/HEVC
Продолжительность : 7 м. 26 с.
Битрейт : 16,3 Мбит/сек
Ширина : 3 840 пикселей
Высота : 2 160 пикселей
Соотношение сторон : 16:9
Режим частоты кадров : Постоянный
Частота кадров : 24,000 кадра/сек
Цветовое пространство : YUV
Субдискретизация насыщенности : 4:2:0
Битовая глубина : 10 бит
Бит/(Пиксели*Кадры) : 0.082
Размер потока : 867 Мбайт (91%)
Язык : English
Default : Да
Forced : Да
Цветовой диапазон : Limited
Основные цвета : BT.2020
Характеристики трансфера : PQ
Коэффициенты матрицы : BT.2020 non-constant
Mastering display color primaries : BT.2020
Mastering display luminance : min: 0.0000 cd/m2, max: 1000 cd/m2
Аудио #1
Идентификатор : 2
Формат : AC-3
Формат/Информация : Audio Coding 3
Коммерческое название : Dolby Digital
Идентификатор кодека : A_AC3
Продолжительность : 7 м. 26 с.
Вид битрейта : Постоянный
Битрейт : 256 Кбит/сек
Каналы : 2 канала
Channel layout : L R
Частота : 48,0 КГц
Частота кадров : 31,250 кадров/сек (1536 SPF)
Метод сжатия : С потерями
Размер потока : 13,6 Мбайт (1%)
Заголовок : Дублированный | Red Head Sound
Язык : Russian
Service kind : Complete Main
Default : Да
Forced : Да
Аудио #2
Идентификатор : 3
Формат : AC-3
Формат/Информация : Audio Coding 3
Коммерческое название : Dolby Digital
Идентификатор кодека : A_AC3
Продолжительность : 7 м. 26 с.
Вид битрейта : Постоянный
Битрейт : 192 Кбит/сек
Каналы : 2 канала
Channel layout : L R
Частота : 48,0 КГц
Частота кадров : 31,250 кадров/сек (1536 SPF)
Метод сжатия : С потерями
Размер потока : 10,2 Мбайт (1%)
Заголовок : MVO | Flarrow Films
Язык : Russian
Service kind : Complete Main
Default : Нет
Forced : Нет
Аудио #3
Идентификатор : 4
Формат : AC-3
Формат/Информация : Audio Coding 3
Коммерческое название : Dolby Digital
Идентификатор кодека : A_AC3
Продолжительность : 7 м. 26 с.
Вид битрейта : Постоянный
Битрейт : 192 Кбит/сек
Каналы : 2 канала
Channel layout : L R
Частота : 48,0 КГц
Частота кадров : 31,250 кадров/сек (1536 SPF)
Метод сжатия : С потерями
Задержка видео : 8 мс.
Размер потока : 10,2 Мбайт (1%)
Заголовок : MVO | TVShows
Язык : Russian
Service kind : Complete Main
Default : Нет
Forced : Нет
Аудио #4
Идентификатор : 5
Формат : AAC LC
Формат/Информация : Advanced Audio Codec Low Complexity
Идентификатор кодека : A_AAC-2
Продолжительность : 7 м. 27 с.
Битрейт : 159 Кбит/сек
Каналы : 2 канала
Channel layout : L R
Частота : 48,0 КГц
Частота кадров : 46,875 кадров/сек (1024 SPF)
Метод сжатия : С потерями
Размер потока : 8,51 Мбайт (1%)
Заголовок : MVO | UFDUB.com
Язык : Ukrainian
Default : Да
Forced : Да
Аудио #5
Идентификатор : 6
Формат : E-AC-3 JOC
Формат/Информация : Enhanced AC-3 with Joint Object Coding
Коммерческое название : Dolby Digital Plus with Dolby Atmos
Идентификатор кодека : A_EAC3
Продолжительность : 7 м. 26 с.
Вид битрейта : Постоянный
Битрейт : 768 Кбит/сек
Каналы : 6 каналов
Channel layout : L R C LFE Ls Rs
Частота : 48,0 КГц
Частота кадров : 31,250 кадров/сек (1536 SPF)
Метод сжатия : С потерями
Размер потока : 40,9 Мбайт (4%)
Заголовок : Оригинал
Язык : English
Service kind : Complete Main
Default : Нет
Forced : Нет
Complexity index : 16
Number of dynamic objects : 15
Bed channel count : 1 канал
Bed channel configuration : LFE
Текст #1
Идентификатор : 7
Формат : UTF-8
Идентификатор кодека : S_TEXT/UTF8
Идентификатор кодека/Информация : UTF-8 Plain Text
Продолжительность : 7 м. 24 с.
Битрейт : 70 бит/сек
Count of elements : 85
Размер потока : 3,82 Кбайт (0%)
Заголовок : Full
Язык : Russian
Default : Нет
Forced : Нет
Текст #2
Идентификатор : 8
Формат : UTF-8
Идентификатор кодека : S_TEXT/UTF8
Идентификатор кодека/Информация : UTF-8 Plain Text
Продолжительность : 6 м. 43 с.
Битрейт : 56 бит/сек
Count of elements : 107
Размер потока : 2,77 Кбайт (0%)
Заголовок : SDH
Язык : English
Default : Нет
Forced : Нет
-- На новые релизы Приятного просмотра.-
AdGuard VPN - бесплатный, надёжный и быстрый VPN
[korsars.pro].t66173.torrent 
Торрент: Зарегистрирован [ 2022-08-15 13:11 ] · E790CC5FD0FD29B99E7469129477B6B680337CDC

Скачать .torrent

Размер .torrent файла 16 KB

Статус: проверено
.torrent скачан: 3 раз
Размер: 6,2 GB
Правила
AdGuard VPN - бесплатный, надёжный и быстрый VPN
Похожие темы

Вы не зарегистрированы на нашем сайте. Вам доступна для скачивания только часть контента. Чтобы увидеть весь контент сайта, пожалуйста, зарегистрируйтесь.

Дешевый и быстрый Сидбокс
У Вас отключен VIP статус, поэтому Вам показывается реклама на сайте. Вы можете поддержать наш ресурс и приобрести VIP статус, тем самым отключив показ рекламы на сайте, а ещё VIP пользователи получают 15 инвайтов, которыми можно поделиться с друзьями или знакомыми.
Дешевый и быстрый Сидбокс
[Профиль] [ЛС]
Показать сообщения:    
Ответить на тему

Текущее время: 26-Фев 00:56

Часовой пояс: UTC + 4



Вы не можете начинать темы
Вы не можете отвечать на сообщения
Вы не можете редактировать свои сообщения
Вы не можете удалять свои сообщения
Вы не можете голосовать в опросах
Вы не можете прикреплять файлы к сообщениям
Вы можете скачивать файлы
Анализ сайта korsars.pro Яндекс.Метрика

Материал для зрителей старше 18 летВсе материалы на сайте получены из свободных источников в сети Интернет и представлены исключительно для личного (некоммерческого) использования лицами старше 18 лет.