Локи / Loki [02x01 из 06] (2023) WEB-DL 1080p | HDRezka Studio, LostFilm

Ответить на тему
Статистика раздачи [Обновить пиров]
Размер:  2,41 GB   |    Зарегистрирован:  6 месяцев 9 дней   |    .torrent скачан:  4 раза
Раздают:  6  [  0 KB/s  ]   Качают:  2  [  0 KB/s  ]   Подробная статистика пиров
   
 
Автор Сообщение

4udaki ®

Оффлайн

Медали


Пол: Мужской

Стаж: 9 лет 5 месяцев

Наличие запрета:

Сообщений: 58650

Откуда: korsars.pro

Отдача: 100 Mb/s

Загрузка: 100 Mb/s



AdGuard VPN - бесплатный, надёжный и быстрый VPN

Создавать темы 08-Окт-2023 17:11

[Цитировать]

Информация о сериале
Название: Локи
Оригинальное название: Loki
Год выпуска: 2023
Жанр: фантастика, фэнтези, боевик, приключения
Режиссер: Кейт Херрон
В ролях: Том Хиддлстон, Софи Ди Мартино, Ричард Э. Грант, Гугу Эмбата-Ро, Вунми Моссаку, Оуэн Уилсон, Эрика Коулмэн, Саша Лэйн, Джон Ливайн, Люсиус Бастон мл.
О сериале: Самый желанный фантастический сольник Marvel — о боге обмана и хитрости Локи — прибыл на Disney+ третьим, но сразу оправдал ожидания. Не такой сюрреалистичный и замысловатый, как «ВандаВижен», не столь зверски серьезный, как «Сокол и Зимний Солдат», он объединяет в себе авантюрную комедию о приключениях двух друзей-противников и самые любопытные сай-фай концепции в истории жанра. В основе сюжета «Локи» — путешествие во времени и дебют новой организации в КВМ — Управления временными измерениями. Стилистически шоу напоминает «Рика и Морти», «Бразилию», «Бегущего по лезвию», выдуманные миры Филипа К. Дика и Дугласа Адамса. При этом, как всегда у Marvel, все максимально динамично, развлекательно и интенсивно. Главной движущей силой остается харизма Тома Хиддлстона и обаяние мятежного асгардца Локи, который, несмотря на всю свою изворотливость, остается добрым малым.
В «Финале» команда Мстителей разработала отличный план по предотвращению катастрофы, в которую вверг Землю безумный титан Танос. Однако была в нем одна загвоздка — младший брат Тора, бог плутовства и трикстер Локи (Том Хиддлстон). Воспользовавшись заварушкой с участием Халка, он схватил Тессеракт и исчез с ним в неизвестном направлении. Однако его поимка — не проблема для агентов таинственного Управления временными измерениями. Они давно следили за привносящим хаос в стройное течение времени Локи, но эта выходка возмутила их настолько, что бог теперь вынужден предстать перед судом могущественных Хранителей времени и понести суровое наказание. Выход из ситуации ему предлагает агент Мобиус М. Мобиус (Оуэн Уилсон), приставленный к Локи куратором. Ему простят грехи, если он согласится отправиться с Мобиусом в путешествие во времени, где затерялся киллер, жестоко убивающий агентов Управления. Локи колеблется — некогда ему размениваться на идиотов-бюрократов, не понимающих всей силы камней бесконечности. Он хочет править миром, и не каким-то там Хранителям решать его судьбу. Однако Мобиус показывает Локи нечто, способное даже у этого заносчивого наглеца выбить почву из-под ног. Теперь трикстеру нужно решить, что делать дальше — продолжить свои хитроумные игры, бросить вызов самому времени или все же попытаться найти искупление… 

Страна: США
Студия: Marvel Studios Inc.
Продолжительность: ~00:50:00 серия
Перевод:
Профессиональный (многоголосый, закадровый) | HDRezka Studio
Профессиональный (многоголосый, закадровый) | LostFilm
Файл
Качество: WEB-DL 1080p
Формат: MKV
Кодек: MPEG-4 AVC
Видео: 1920х1080, ~ 6281 Kбит/с, 24.000 FPS, 8 bits
Аудио (руссикй): AC3, 2 ch, 192 Kbps, 48.0 kHz | HDRezka Studio
Аудио (руссикй): AC3, 2 ch, 384 Kbps, 48.0 kHz | LostFilm
Аудио (английский): E-AC3 JOC, 6 ch, 768 Kbps, 48.0 kHz | Оригинал
Субтитры: Русские (Forced , Full (Где тексты, Лебовски?)), английские (full, SDH)
***Примечание: Без рекламы

MediaInfo

General
Unique ID : 116879966282119473872659097872274628960 (0x57EE43400E64CE9AA469EEA13E652160)
Complete name : Loki.S02E01.Ouroboros.1080p.mkv
Format : Matroska
Format version : Version 4
File size : 2.41 GiB
Duration : 45 min 15 s
Overall bit rate mode : Variable
Overall bit rate : 7 628 kb/s
Frame rate : 24.000 FPS
Encoded date : 2023-10-08 07:43:42 UTC
Writing application : mkvmerge v79.0 ('Funeral Pyres') 64-bit
Writing library : libebml v1.4.4 + libmatroska v1.7.1
Video
ID : 1
Format : AVC
Format/Info : Advanced Video Codec
Format profile : High@L4
Format settings : CABAC / 4 Ref Frames
Format settings, CABAC : Yes
Format settings, Reference : 4 frames
Codec ID : V_MPEG4/ISO/AVC
Duration : 45 min 15 s
Bit rate mode : Variable
Bit rate : 6 281 kb/s
Maximum bit rate : 12.7 Mb/s
Width : 1 920 pixels
Height : 1 080 pixels
Display aspect ratio : 16:9
Frame rate mode : Constant
Frame rate : 24.000 FPS
Color space : YUV
Chroma subsampling : 4:2:0
Bit depth : 8 bits
Scan type : Progressive
Bits/(Pixel*Frame) : 0.126
Stream size : 1.99 GiB (82%)
Default : Yes
Forced : No
Color range : Limited
Color primaries : BT.709
Transfer characteristics : BT.709
Matrix coefficients : BT.709
Audio #1
ID : 2
Format : AC-3
Format/Info : Audio Coding 3
Commercial name : Dolby Digital
Codec ID : A_AC3
Duration : 45 min 15 s
Bit rate mode : Constant
Bit rate : 192 kb/s
Channel(s) : 2 channels
Channel layout : L R
Sampling rate : 48.0 kHz
Frame rate : 31.250 FPS (1536 SPF)
Compression mode : Lossy
Stream size : 62.2 MiB (3%)
Title : HDRezka Studio
Language : Russian
Service kind : Complete Main
Default : Yes
Forced : No
Audio #2
ID : 3
Format : AC-3
Format/Info : Audio Coding 3
Commercial name : Dolby Digital
Codec ID : A_AC3
Duration : 45 min 15 s
Bit rate mode : Constant
Bit rate : 384 kb/s
Channel(s) : 2 channels
Channel layout : L R
Sampling rate : 48.0 kHz
Frame rate : 31.250 FPS (1536 SPF)
Compression mode : Lossy
Stream size : 124 MiB (5%)
Title : LostFilm
Language : Russian
Service kind : Complete Main
Default : No
Forced : No
Audio #3
ID : 4
Format : E-AC-3 JOC
Format/Info : Enhanced AC-3 with Joint Object Coding
Commercial name : Dolby Digital Plus with Dolby Atmos
Codec ID : A_EAC3
Duration : 45 min 15 s
Bit rate mode : Constant
Bit rate : 768 kb/s
Channel(s) : 6 channels
Channel layout : L R C LFE Ls Rs
Sampling rate : 48.0 kHz
Frame rate : 31.250 FPS (1536 SPF)
Compression mode : Lossy
Stream size : 249 MiB (10%)
Language : English
Service kind : Complete Main
Default : No
Forced : No
Complexity index : 16
Number of dynamic objects : 15
Bed channel count : 1 channel
Bed channel configuration : LFE
Text #1
ID : 5
Format : UTF-8
Codec ID : S_TEXT/UTF8
Codec ID/Info : UTF-8 Plain Text
Duration : 41 min 22 s
Bit rate : 1 b/s
Frame rate : 0.004 FPS
Count of elements : 10
Stream size : 415 Bytes (0%)
Title : forced
Language : Russian
Default : Yes
Forced : No
Text #2
ID : 6
Format : UTF-8
Codec ID : S_TEXT/UTF8
Codec ID/Info : UTF-8 Plain Text
Duration : 42 min 48 s
Bit rate : 104 b/s
Frame rate : 0.227 FPS
Count of elements : 582
Stream size : 32.7 KiB (0%)
Language : Russian
Default : No
Forced : No
Text #3
ID : 7
Format : UTF-8
Codec ID : S_TEXT/UTF8
Codec ID/Info : UTF-8 Plain Text
Duration : 42 min 32 s
Bit rate : 65 b/s
Frame rate : 0.226 FPS
Count of elements : 578
Stream size : 20.3 KiB (0%)
Language : English
Default : No
Forced : No
Text #4
ID : 8
Format : UTF-8
Codec ID : S_TEXT/UTF8
Codec ID/Info : UTF-8 Plain Text
Duration : 42 min 39 s
Bit rate : 69 b/s
Frame rate : 0.245 FPS
Count of elements : 627
Stream size : 21.9 KiB (0%)
Title : SDH
Language : English
Default : No
Forced : No
-
AdGuard VPN - бесплатный, надёжный и быстрый VPN
[korsars.pro].t91500.torrent 
Торрент: Зарегистрирован [ 2023-10-08 17:11 ] · 6C46566C378FA8A9F64BB621471C7FBA122CE282

Скачать .torrent

Размер .torrent файла 97 KB

Статус: проверено
.torrent скачан: 4 раз
Размер: 2,41 GB
Правила
AdGuard VPN - бесплатный, надёжный и быстрый VPN
Похожие темы

Вы не зарегистрированы на нашем сайте. Вам доступна для скачивания только часть контента. Чтобы увидеть весь контент сайта, пожалуйста, зарегистрируйтесь.

Дешевый и быстрый Сидбокс
У Вас отключен VIP статус, поэтому Вам показывается реклама на сайте. Вы можете поддержать наш ресурс и приобрести VIP статус, тем самым отключив показ рекламы на сайте, а ещё VIP пользователи получают 15 инвайтов, которыми можно поделиться с друзьями или знакомыми.
Дешевый и быстрый Сидбокс
[Профиль] [ЛС]
Показать сообщения:    
Ответить на тему

Текущее время: 18-Апр 16:40

Часовой пояс: UTC + 4



Вы не можете начинать темы
Вы не можете отвечать на сообщения
Вы не можете редактировать свои сообщения
Вы не можете удалять свои сообщения
Вы не можете голосовать в опросах
Вы не можете прикреплять файлы к сообщениям
Вы можете скачивать файлы
Анализ сайта korsars.pro Яндекс.Метрика

Материал для зрителей старше 18 летВсе материалы на сайте получены из свободных источников в сети Интернет и представлены исключительно для личного (некоммерческого) использования лицами старше 18 лет.