Оби-Ван Кеноби / Obi-Wan Kenobi [S01] (2022) WEB-DL-HEVC 2160p | 4K | HDR | Dolby Vision Profile 8 | D, P, A, L

Ответить на тему
Статистика раздачи [Обновить пиров]
Размер:  39.29 GB   |    Зарегистрирован:  1 год 11 месяцев   |    .torrent скачан:  11 раз
Раздают:  119  [  0 KB/s  ]   Качают:  68  [  0 KB/s  ]   Подробная статистика пиров
   
 
Автор Сообщение

ExPlayer ®

Оффлайн

Медали


Пол: Мужской

Стаж: 9 лет 8 месяцев

Наличие запрета:

Сообщений: 62299

Откуда: korsars.pro

Отдача: 100 Mb/s

Загрузка: 100 Mb/s



AdGuard VPN - бесплатный, надёжный и быстрый VPN

Создавать темы 22-Июл-2022 09:00

[Цитировать]

Информация о фильме
Название: Оби-Ван Кеноби
Оригинальное название: Obi-Wan Kenobi
Год выхода: 2022
Жанр: фантастика, боевик, приключения
Режиссер: Дебора Чоу
В ролях: Юэн Макгрегор, Хейден Кристенсен, Руперт Френд, Джоэл Эдгертон, Майя Эрскин, Кумэйл Нанджиани, Моусес Ингрэм, Бонни Пессе, Бенни Сэфди, О’Ши Джексон
О фильме:
Спин-офф «Звездных войн», действие которого разворачивается спустя 10 лет после финала «Мести ситхов» и за 9 лет до событий «Новой надежды». Джедай Оби-Ван Кеноби присматривает за юным Люком Скайуокером и прячется от охотников Империи во время изгнания на Татуине. Как и прежде, Оби-Вана Кеноби играет Юэн Макгрегор, а Дарта Вейдера — Хейден Кристенсен.

Страна: США
Студия: LucasFilm Ltd., Disney+
Продолжительность: 6 x ~ 00:45:00
Перевод: Профессиональный многоголосый, дублированный(любительский), авторский, любительский многоголосый
Файл
Формат: MKV
Кодек: H.265
Качество: WebDL 2160p
Видео: HEVC, HDR10, Dolby Vision Profile 8, ~15,5 Mбит/с, 3840x2160, 24,000 кадр/с
Звук:
Аудио #1 Русский: AC3, 48.0 kHz, 5.1 ch, 384 Kbps [MVO, AlexFilm]
Аудио #2 Русский: AC3, 48.0 kHz, 2.0 ch, 192 Kbps [Дубляж, Red Head Sound]
Аудио #3 Русский: AC3, 48.0 kHz, 2.0 ch, 192 Kbps [Дубляж, Flarrow Film]
Аудио #4 Русский: AC3, 48.0 kHz, 5.1 ch, 640 Kbps [MVO, LostFilm]
Аудио #5 Русский: AC3, 48.0 kHz, 5.1 ch, 384 Kbps [MVO, NewComers]
Аудио #6 Русский: AC3, 48.0 kHz, 5.1 ch, 448 Kbps [MVO, HDRezka Studio]
Аудио #7 Русский: AC3, 48.0 kHz, 2.0 ch, 192 Kbps [MVO, TVShows]
Аудио #8 Русский: EAC3, 48.0 kHz, 5.1 ch, 768 Kbps [MVO, LE-Production]
Аудио #9 Русский: AC3, 48.0 kHz, 2.0 ch, 192 Kbps [MVO, RuDub]
Аудио #10 Русский: AC3, 48.0 kHz, 5.1 ch, 448 Kbps [AVO, Ю.Сербин]
Аудио #11 Украинский: AC3, 48.0 kHz, 5.1 ch, 512 Kbps [MVO, Цікава Ідея]
Аудио #12 Украинский: AC3, 48.0 kHz, 5.1 ch, 384 Kbps [MVO, HDRezka Studio]
Аудио #13 Украинский: AC3, 48.0 kHz, 5.1 ch, 640 Kbps [MVO, Baibako]
Аудио #14 English: EAC3+Atmos, 48.0 kHz, 5.1 ch, 768 Kbps [Original]
Субтитры: русские(forced, полные(Где тексты, Лебовски?)), украинские(forced), английские(full, SDH)
РЕЛИЗ БЕЗ РЕКЛАМЫ
Примечание: Гибридный релиз получен слиянием UHD Web-DL 2160p HDR + Web-DL 2160p Dolby vision RPU
Сэмпл: Google Disk
Дополнительная информация:
Данный вид релизов в MKV сделан в 8-м профиле Dolby Vision для воспроизведении на устройствах с поддержкой DV. Протестировано на тв-боксах Nvidia Shield 2019, Zidoo Z1000 Pro, Ugoos AM6+, TiVo Stream 4K. Не точно подтверждено воспроизведение на телевизорах Sony XG/XH и Phillips. На устройствах без поддержки Dolby Vision будет играть обычный HDR10.
Программные плееры для воспроизведения в DV(на поддерживаемых устройствах): Vimu Player 8.8.8(и выше), Kodi 19(специальная сборка с поддержкой DV), ExoPlayer, JustPlayer.

Mediainfo

Общее
Уникальный идентификатор : 72136772568668063943434574069588162795 (0x3645097B54F54AF2944081B39521F8EB)
Полное имя : F:RELEASESObi-Wan KenobiObi-Wan.Kenobi.S01E03.2160p.WEB-DL.DDP5.1.Atmos.HDR.DoVi.Hybrid.P8.by.DVT.mkv
Формат : Matroska
Версия формата : Version 4
Размер файла : 6,71 Гбайт
Продолжительность : 44 м. 35 с.
Общий поток : 21,5 Мбит/сек
Название фильма : Obi-Wan Kenobi S01E03 (2022) - Release by Dolby Vision Torrents
Дата кодирования : UTC 2022-06-23 14:40:00
Программа кодирования : mkvmerge v68.0.0 ('The Curtain') 64-bit
Библиотека кодирования : libebml v1.4.2 + libmatroska v1.6.4
Attachments : Obi-Wan Kenobi.jpg
Видео
Идентификатор : 1
Формат : HEVC
Формат/Информация : High Efficiency Video Coding
Профиль формата : Main 10@L5@High
HDR format : Dolby Vision, Version 1.0, dvhe.08.06, BL+RPU, HDR10 compatible / SMPTE ST 2086, HDR10 compatible
Идентификатор кодека : V_MPEGH/ISO/HEVC
Продолжительность : 44 м. 34 с.
Битрейт : 15,4 Мбит/сек
Ширина : 3 840 пикселей
Высота : 2 160 пикселей
Соотношение сторон : 16:9
Режим частоты кадров : Постоянный
Частота кадров : 24,000 кадра/сек
Цветовое пространство : YUV
Субдискретизация насыщенности : 4:2:0
Битовая глубина : 10 бит
Бит/(Пиксели*Кадры) : 0.077
Размер потока : 4,79 Гбайт (71%)
Заголовок : Obi-Wan Kenobi S01E03 (2022) - HYBRID by DVT
Язык : English
Default : Да
Forced : Нет
Цветовой диапазон : Limited
Основные цвета : BT.2020
Характеристики трансфера : PQ
Коэффициенты матрицы : BT.2020 non-constant
Mastering display color primaries : BT.2020
Mastering display luminance : min: 0.0000 cd/m2, max: 1000 cd/m2
Аудио #1
Идентификатор : 2
Формат : AC-3
Формат/Информация : Audio Coding 3
Коммерческое название : Dolby Digital
Идентификатор кодека : A_AC3
Продолжительность : 44 м. 34 с.
Вид битрейта : Постоянный
Битрейт : 384 Кбит/сек
Каналы : 6 каналов
Channel layout : L R C LFE Ls Rs
Частота : 48,0 КГц
Частота кадров : 31,250 кадров/сек (1536 SPF)
Метод сжатия : С потерями
Размер потока : 122 Мбайт (2%)
Заголовок : MVO, AlexFilm
Язык : Russian
Service kind : Complete Main
Default : Да
Forced : Нет
Аудио #2
Идентификатор : 3
Формат : AC-3
Формат/Информация : Audio Coding 3
Коммерческое название : Dolby Digital
Идентификатор кодека : A_AC3
Продолжительность : 44 м. 34 с.
Вид битрейта : Постоянный
Битрейт : 192 Кбит/сек
Каналы : 2 канала
Channel layout : L R
Частота : 48,0 КГц
Частота кадров : 31,250 кадров/сек (1536 SPF)
Метод сжатия : С потерями
Размер потока : 61,2 Мбайт (1%)
Заголовок : Дубляж, Red Head Sound
Язык : Russian
Service kind : Complete Main
Default : Нет
Forced : Нет
Аудио #3
Идентификатор : 4
Формат : AC-3
Формат/Информация : Audio Coding 3
Коммерческое название : Dolby Digital
Идентификатор кодека : A_AC3
Продолжительность : 44 м. 34 с.
Вид битрейта : Постоянный
Битрейт : 192 Кбит/сек
Каналы : 2 канала
Channel layout : L R
Частота : 48,0 КГц
Частота кадров : 31,250 кадров/сек (1536 SPF)
Метод сжатия : С потерями
Размер потока : 61,2 Мбайт (1%)
Заголовок : Дубляж, Flarrow Films
Язык : Russian
Service kind : Complete Main
Default : Нет
Forced : Нет
Аудио #4
Идентификатор : 5
Формат : AC-3
Формат/Информация : Audio Coding 3
Коммерческое название : Dolby Digital
Идентификатор кодека : A_AC3
Продолжительность : 44 м. 34 с.
Вид битрейта : Постоянный
Битрейт : 640 Кбит/сек
Каналы : 6 каналов
Channel layout : L R C LFE Ls Rs
Частота : 48,0 КГц
Частота кадров : 31,250 кадров/сек (1536 SPF)
Метод сжатия : С потерями
Размер потока : 204 Мбайт (3%)
Заголовок : MVO, LostFilm
Язык : Russian
Service kind : Complete Main
Default : Нет
Forced : Нет
Аудио #5
Идентификатор : 6
Формат : AC-3
Формат/Информация : Audio Coding 3
Коммерческое название : Dolby Digital
Идентификатор кодека : A_AC3
Продолжительность : 44 м. 35 с.
Вид битрейта : Постоянный
Битрейт : 384 Кбит/сек
Каналы : 6 каналов
Channel layout : L R C LFE Ls Rs
Частота : 48,0 КГц
Частота кадров : 31,250 кадров/сек (1536 SPF)
Метод сжатия : С потерями
Размер потока : 122 Мбайт (2%)
Заголовок : MVO, NewComers
Язык : Russian
Service kind : Complete Main
Default : Нет
Forced : Нет
Аудио #6
Идентификатор : 7
Формат : AC-3
Формат/Информация : Audio Coding 3
Коммерческое название : Dolby Digital
Идентификатор кодека : A_AC3
Продолжительность : 44 м. 34 с.
Вид битрейта : Постоянный
Битрейт : 448 Кбит/сек
Каналы : 6 каналов
Channel layout : L R C LFE Ls Rs
Частота : 48,0 КГц
Частота кадров : 31,250 кадров/сек (1536 SPF)
Метод сжатия : С потерями
Размер потока : 143 Мбайт (2%)
Заголовок : MVO, HDRezka Studio
Язык : Russian
Service kind : Complete Main
Default : Нет
Forced : Нет
Аудио #7
Идентификатор : 8
Формат : AC-3
Формат/Информация : Audio Coding 3
Коммерческое название : Dolby Digital
Идентификатор кодека : A_AC3
Продолжительность : 44 м. 34 с.
Вид битрейта : Постоянный
Битрейт : 192 Кбит/сек
Каналы : 2 канала
Channel layout : L R
Частота : 48,0 КГц
Частота кадров : 31,250 кадров/сек (1536 SPF)
Метод сжатия : С потерями
Размер потока : 61,2 Мбайт (1%)
Заголовок : MVO, TVShows
Язык : Russian
Service kind : Complete Main
Default : Нет
Forced : Нет
Аудио #8
Идентификатор : 9
Формат : E-AC-3
Формат/Информация : Enhanced AC-3
Коммерческое название : Dolby Digital Plus
Идентификатор кодека : A_EAC3
Продолжительность : 44 м. 34 с.
Вид битрейта : Постоянный
Битрейт : 768 Кбит/сек
Каналы : 6 каналов
Channel layout : L R C LFE Ls Rs
Частота : 48,0 КГц
Частота кадров : 31,250 кадров/сек (1536 SPF)
Метод сжатия : С потерями
Размер потока : 245 Мбайт (4%)
Заголовок : MVO, LE-Production
Язык : Russian
Service kind : Complete Main
Default : Нет
Forced : Нет
Аудио #9
Идентификатор : 10
Формат : AC-3
Формат/Информация : Audio Coding 3
Коммерческое название : Dolby Digital
Идентификатор кодека : A_AC3
Продолжительность : 44 м. 34 с.
Вид битрейта : Постоянный
Битрейт : 192 Кбит/сек
Каналы : 2 канала
Channel layout : L R
Частота : 48,0 КГц
Частота кадров : 31,250 кадров/сек (1536 SPF)
Метод сжатия : С потерями
Размер потока : 61,2 Мбайт (1%)
Заголовок : MVO, RuDub
Язык : Russian
Service kind : Complete Main
Default : Нет
Forced : Нет
Аудио #10
Идентификатор : 11
Формат : AC-3
Формат/Информация : Audio Coding 3
Коммерческое название : Dolby Digital
Идентификатор кодека : A_AC3
Продолжительность : 44 м. 34 с.
Вид битрейта : Постоянный
Битрейт : 448 Кбит/сек
Каналы : 6 каналов
Channel layout : L R C LFE Ls Rs
Частота : 48,0 КГц
Частота кадров : 31,250 кадров/сек (1536 SPF)
Метод сжатия : С потерями
Размер потока : 143 Мбайт (2%)
Заголовок : AVO, Ю.Сербин
Язык : Russian
Service kind : Complete Main
Default : Нет
Forced : Нет
Аудио #11
Идентификатор : 12
Формат : AC-3
Формат/Информация : Audio Coding 3
Коммерческое название : Dolby Digital
Идентификатор кодека : A_AC3
Продолжительность : 44 м. 34 с.
Вид битрейта : Постоянный
Битрейт : 512 Кбит/сек
Каналы : 6 каналов
Channel layout : L R C LFE Ls Rs
Частота : 48,0 КГц
Частота кадров : 31,250 кадров/сек (1536 SPF)
Метод сжатия : С потерями
Размер потока : 163 Мбайт (2%)
Заголовок : MVO, Цікава Ідея
Язык : Ukrainian
Service kind : Complete Main
Default : Нет
Forced : Нет
Аудио #12
Идентификатор : 13
Формат : AC-3
Формат/Информация : Audio Coding 3
Коммерческое название : Dolby Digital
Идентификатор кодека : A_AC3
Продолжительность : 44 м. 35 с.
Вид битрейта : Постоянный
Битрейт : 384 Кбит/сек
Каналы : 6 каналов
Channel layout : L R C LFE Ls Rs
Частота : 48,0 КГц
Частота кадров : 31,250 кадров/сек (1536 SPF)
Метод сжатия : С потерями
Размер потока : 122 Мбайт (2%)
Заголовок : MVO, HDRezka Studio
Язык : Ukrainian
Service kind : Complete Main
Default : Нет
Forced : Нет
Аудио #13
Идентификатор : 14
Формат : AC-3
Формат/Информация : Audio Coding 3
Коммерческое название : Dolby Digital
Идентификатор кодека : A_AC3
Продолжительность : 44 м. 34 с.
Вид битрейта : Постоянный
Битрейт : 640 Кбит/сек
Каналы : 6 каналов
Channel layout : L R C LFE Ls Rs
Частота : 48,0 КГц
Частота кадров : 31,250 кадров/сек (1536 SPF)
Метод сжатия : С потерями
Размер потока : 204 Мбайт (3%)
Заголовок : MVO, Baibako
Язык : Ukrainian
Service kind : Complete Main
Default : Нет
Forced : Нет
Аудио #14
Идентификатор : 15
Формат : E-AC-3 JOC
Формат/Информация : Enhanced AC-3 with Joint Object Coding
Коммерческое название : Dolby Digital Plus with Dolby Atmos
Идентификатор кодека : A_EAC3
Продолжительность : 44 м. 34 с.
Вид битрейта : Постоянный
Битрейт : 768 Кбит/сек
Каналы : 6 каналов
Channel layout : L R C LFE Ls Rs
Частота : 48,0 КГц
Частота кадров : 31,250 кадров/сек (1536 SPF)
Метод сжатия : С потерями
Размер потока : 245 Мбайт (4%)
Заголовок : Original
Язык : English
Service kind : Complete Main
Default : Нет
Forced : Нет
Complexity index : 16
Number of dynamic objects : 15
Bed channel count : 1 канал
Bed channel configuration : LFE
Текст #1
Идентификатор : 16
Формат : UTF-8
Идентификатор кодека : S_TEXT/UTF8
Идентификатор кодека/Информация : UTF-8 Plain Text
Продолжительность : 40 м. 49 с.
Битрейт : 0 бит/сек
Count of elements : 2
Размер потока : 132 байт (0%)
Заголовок : Forced
Язык : Russian
Default : Да
Forced : Нет
Текст #2
Идентификатор : 17
Формат : UTF-8
Идентификатор кодека : S_TEXT/UTF8
Идентификатор кодека/Информация : UTF-8 Plain Text
Продолжительность : 41 м. 5 с.
Битрейт : 60 бит/сек
Count of elements : 380
Размер потока : 18,3 Кбайт (0%)
Заголовок : Где тексты, Лебовски?
Язык : Russian
Default : Нет
Forced : Нет
Текст #3
Идентификатор : 18
Формат : UTF-8
Идентификатор кодека : S_TEXT/UTF8
Идентификатор кодека/Информация : UTF-8 Plain Text
Продолжительность : 1 м. 42 с.
Битрейт : 5 бит/сек
Count of elements : 2
Размер потока : 69,0 байт (0%)
Заголовок : Forced
Язык : Ukrainian
Default : Нет
Forced : Нет
Текст #4
Идентификатор : 19
Формат : UTF-8
Идентификатор кодека : S_TEXT/UTF8
Идентификатор кодека/Информация : UTF-8 Plain Text
Продолжительность : 40 м. 41 с.
Битрейт : 38 бит/сек
Count of elements : 382
Размер потока : 11,5 Кбайт (0%)
Заголовок : Full
Язык : English
Default : Нет
Forced : Нет
Текст #5
Идентификатор : 20
Формат : UTF-8
Идентификатор кодека : S_TEXT/UTF8
Идентификатор кодека/Информация : UTF-8 Plain Text
Продолжительность : 40 м. 50 с.
Битрейт : 47 бит/сек
Count of elements : 465
Размер потока : 14,1 Кбайт (0%)
Заголовок : SDH
Язык : English
Default : Нет
Forced : Нет
Меню
00:00:04.000 : en:Recap
00:01:32.625 : en:End of Recap
00:01:33.792 : en:Intro
00:01:59.292 : en:End of Intro
00:41:20.792 : en:Credits
--Релиз от: Dolby Vision Torrents
AdGuard VPN - бесплатный, надёжный и быстрый VPN
[korsars.pro].t61983.torrent 
Торрент: Зарегистрирован [ 2022-07-22 09:00 ] · 518D07A7B441DF728775E270641E4195C2F1A13A

Скачать .torrent

Размер .torrent файла 394 KB

Статус: проверено
.torrent скачан: 11 раз
Размер: 39.29 GB
Правила

AdGuard VPN - бесплатный, надёжный и быстрый VPN
Похожие темы

Вы не зарегистрированы на нашем сайте. Вам доступна для скачивания только часть контента. Чтобы увидеть весь контент сайта, пожалуйста, зарегистрируйтесь.

Дешевый и быстрый Сидбокс
У Вас отключен VIP статус, поэтому Вам показывается реклама на сайте. Вы можете поддержать наш ресурс и приобрести VIP статус, тем самым отключив показ рекламы на сайте, а ещё VIP пользователи получают 15 инвайтов, которыми можно поделиться с друзьями или знакомыми.
Дешевый и быстрый Сидбокс
AdGuard - Интернет без рекламы и слежки в любом браузере
[Профиль] [ЛС]
Показать сообщения:    
Ответить на тему

Текущее время: 13-Июл 00:26

Часовой пояс: UTC + 4



Вы не можете начинать темы
Вы не можете отвечать на сообщения
Вы не можете редактировать свои сообщения
Вы не можете удалять свои сообщения
Вы не можете голосовать в опросах
Вы не можете прикреплять файлы к сообщениям
Вы можете скачивать файлы
Яндекс.Метрика

Материал для зрителей старше 18 летВсе материалы на сайте получены из свободных источников в сети Интернет и представлены исключительно для личного (некоммерческого) использования лицами старше 18 лет.