Тёмная материя / Dark Matter [01x01-08 из 09] (2024) WEB-DL 1080p от Jaskier | P

Ответить на тему
Статистика раздачи [Обновить пиров]
Размер:  32.79 GB   |    Зарегистрирован:  21 день   |    .torrent скачан:  0 раз
Раздают:  160  [  0 KB/s  ]   Качают:  193  [  0 KB/s  ]   Подробная статистика пиров
   
 
Автор Сообщение

ExPlayer ®

Оффлайн

Медали


Пол: Мужской

Стаж: 9 лет 8 месяцев

Наличие запрета:

Сообщений: 62299

Откуда: korsars.pro

Отдача: 100 Mb/s

Загрузка: 100 Mb/s



AdGuard VPN - бесплатный, надёжный и быстрый VPN

Создавать темы 21-Июн-2024 01:02

[Цитировать]


Информация о фильме
Название: Тёмная материя
Оригинальное название: Dark Matter
Год выхода: 2024
Жанр: фантастика, триллер, драма
Режиссер: Якоб Вербрюгген, Роксанн Доусон, Логан Джордж
В ролях: Джоэл Эдгертон, Дженнифер Коннелли, Оакс Фигли, Алиси Брага, Джимми Симпсон, Дайо Окенийи, Аманда Бругел, Tiff Abreu, Bassam Abdelfattah, Уильям Смайли
О фильме:
Физик Джейсон Дессен из Чикаго оказывается в альтернативной версии свой жизни. Чтобы вернуться к своей семье, он должен будет пройти через ряд параллельных реальностей и столкнуться с альтернативной версией самого себя.

Страна: США
Студия: Matt Tolmach Productions, Sony Pictures Television
Продолжительность: ~00:53:00
Перевод: Профессиональный (многоголосый закадровый) Jaskier
Файл
Кодек: MKV
Качество: WEB-DL 1080p
Видео: AVC, 1920x960 (2.000), 23.976 fps, ~9986 kbps
Звук:
Аудио 1: Русский, AC-3, 48 kHz, 6 ch, 384 kbps | Jaskier
Аудио 2: Английский, E-AC-3 JOC, 48 kHz, 6 ch, 768 kbps
Субтитры: Русские, Английские (Full, SDH)
Семпл

MediaInfo

General
Unique ID : 244570213092980528239579711392142811519 (0xB7FE827B0CCC247DB1455D3FF547617F)
Complete name : E:TorrentDark Matter 2024 S01 1080p ATVP WEB-DL DDP5 1 Atmos H 264-JaskierDark Matter 2024 S01E01 Are You Happy in Your Life 1080p ATVP WEB-DL DDP5 1 Atmos H 264-Jaskier.mkv
Format : Matroska
Format version : Version 4
File size : 3.62 GiB
Duration : 46 min 15 s
Overall bit rate : 11.2 Mb/s
Frame rate : 23.976 FPS
Encoded date : 2024-05-10 10:31:19 UTC
Writing application : mkvmerge v6.6.0 ('The Edge Of The In Between') built on Dec 1 2013 17:55:00
Writing library : libebml v1.3.0 + libmatroska v1.4.1
Video
ID : 1
Format : AVC
Format/Info : Advanced Video Codec
Format profile : High@L4
Format settings : CABAC / 4 Ref Frames
Format settings, CABAC : Yes
Format settings, Reference frames : 4 frames
Format settings, Slice count : 8 slices per frame
Codec ID : V_MPEG4/ISO/AVC
Duration : 46 min 15 s
Bit rate : 9 814 kb/s
Width : 1 920 pixels
Height : 960 pixels
Display aspect ratio : 2.000
Frame rate mode : Constant
Frame rate : 23.976 (24000/1001) FPS
Color space : YUV
Chroma subsampling : 4:2:0
Bit depth : 8 bits
Scan type : Progressive
Bits/(Pixel*Frame) : 0.222
Stream size : 3.17 GiB (88%)
Language : English
Default : Yes
Forced : No
Color range : Limited
Color primaries : BT.709
Transfer characteristics : BT.709
Matrix coefficients : BT.709
Audio #1
ID : 2
Format : AC-3
Format/Info : Audio Coding 3
Commercial name : Dolby Digital
Codec ID : A_AC3
Duration : 46 min 15 s
Bit rate mode : Constant
Bit rate : 384 kb/s
Channel(s) : 6 channels
Channel layout : L R C LFE Ls Rs
Sampling rate : 48.0 kHz
Frame rate : 31.250 FPS (1536 SPF)
Compression mode : Lossy
Stream size : 127 MiB (3%)
Title : Jaskier
Language : Russian
Service kind : Complete Main
Default : Yes
Forced : No
Audio #2
ID : 3
Format : E-AC-3 JOC
Format/Info : Enhanced AC-3 with Joint Object Coding
Commercial name : Dolby Digital Plus with Dolby Atmos
Codec ID : A_EAC3
Duration : 46 min 15 s
Bit rate mode : Constant
Bit rate : 768 kb/s
Channel(s) : 6 channels
Channel layout : L R C LFE Ls Rs
Sampling rate : 48.0 kHz
Frame rate : 31.250 FPS (1536 SPF)
Compression mode : Lossy
Stream size : 254 MiB (7%)
Title : Original
Language : English
Service kind : Complete Main
Default : No
Forced : No
Complexity index : 16
Number of dynamic objects : 15
Bed channel count : 1 channel
Bed channel configuration : LFE
Text #1
ID : 4
Format : UTF-8
Codec ID : S_TEXT/UTF8
Codec ID/Info : UTF-8 Plain Text
Language : Russian
Default : No
Forced : No
Text #2
ID : 5
Format : UTF-8
Codec ID : S_TEXT/UTF8
Codec ID/Info : UTF-8 Plain Text
Language : English
Default : No
Forced : No
Text #3
ID : 6
Format : UTF-8
Codec ID : S_TEXT/UTF8
Codec ID/Info : UTF-8 Plain Text
Title : SDH
Language : English
Default : No
Forced : No

Скриншоты

Релиз от: Jaskier
AdGuard VPN - бесплатный, надёжный и быстрый VPN
[korsars.pro].t104891.torrent 
Торрент: Зарегистрирован [ 2024-06-21 01:02 ] · B7389C4C0FDBE89F02AAC037C73BCCE5C5648013

Скачать .torrent

Размер .torrent файла 84 KB

Статус: проверено
.torrent скачан: 0 раз
Размер: 32.79 GB
Правила

AdGuard VPN - бесплатный, надёжный и быстрый VPN
Похожие темы

Вы не зарегистрированы на нашем сайте. Вам доступна для скачивания только часть контента. Чтобы увидеть весь контент сайта, пожалуйста, зарегистрируйтесь.

Дешевый и быстрый Сидбокс
У Вас отключен VIP статус, поэтому Вам показывается реклама на сайте. Вы можете поддержать наш ресурс и приобрести VIP статус, тем самым отключив показ рекламы на сайте, а ещё VIP пользователи получают 15 инвайтов, которыми можно поделиться с друзьями или знакомыми.
Дешевый и быстрый Сидбокс
AdGuard - Интернет без рекламы и слежки в любом браузере
[Профиль] [ЛС]
Показать сообщения:    
Ответить на тему

Текущее время: 12-Июл 17:37

Часовой пояс: UTC + 4



Вы не можете начинать темы
Вы не можете отвечать на сообщения
Вы не можете редактировать свои сообщения
Вы не можете удалять свои сообщения
Вы не можете голосовать в опросах
Вы не можете прикреплять файлы к сообщениям
Вы можете скачивать файлы
Яндекс.Метрика

Материал для зрителей старше 18 летВсе материалы на сайте получены из свободных источников в сети Интернет и представлены исключительно для личного (некоммерческого) использования лицами старше 18 лет.