Индиана Джонс и колесо судьбы / Indiana Jones and the Dial of Destiny (2023) WEB-DL-HEVC 2160p | 4K | SDR | D | Flarrow Films

Ответить на тему
Статистика раздачи [Обновить пиров]
Размер:  22,66 GB   |    Зарегистрирован:  4 месяца 14 дней   |    .torrent скачан:  75 раз

Полного источника не было: 12 дней

Качают:  3  [  0 KB/s  ]   Подробная статистика пиров
   
 
Автор Сообщение

4udaki ®

Оффлайн

Медали


Пол: Мужской

Стаж: 9 лет 3 месяца

Наличие запрета:

Сообщений: 55781

Откуда: korsars.pro

Отдача: 100 Mb/s

Загрузка: 100 Mb/s



AdGuard VPN - бесплатный, надёжный и быстрый VPN

Создавать темы 06-Окт-2023 22:30

[Цитировать]

Информация о фильме
Название: Индиана Джонс и колесо судьбы
Оригинальное название: Indiana Jones and the Dial of Destiny
Год выхода: 2023
Жанр: фантастика, боевик, приключения
Режиссер: Джеймс Мэнголд
В ролях: Харрисон Форд, Карен Аллен, Фиби Уоллер-Бридж, Мадс Миккельсен, Бойд Холбрук, Антонио Бандерас, Джон Рис-Дэвис, Тоби Джонс, Билли Постлтуэйт, Оливье Рихтерс, Шонетт Рене Уилсон, Томас Кречман
О фильме:
Неувядающий авантюрист и пытливый археолог-исследователь по-прежнему в седле. На этот раз ему придётся столкнуться с непростой задачей, которую решить на раз-два вряд ли получится. Но Индиана Джонс не даст слабину и не отступит при виде даже самой безнадёжной ситуации.

Страна: США
Продолжительность: 02:34:47
Перевод: Дублированный (неофициальный) | Flarrow Films
Роли озвучивали: Станислав Концевич, Илья Исаев, Александр Баргман, Мария Цветкова-Овсянникова, Анастасия Лапина, Людмила Ильина, Александр Хотченков, Сергей Балабанов, Андрей Градов, Анатолий Нокс, Егор Васильев, Анастасия Портная, Артем Маликов, Ислам Ганджаев, Никита Жбанов, Федор Парамонов
Файл
Формат:MKV
Кодек: HEVC
Качество: WEB-DL-HEVC 2160p
Видео: 3840х1608, ~ 20.3 Mb/s, 23.948, 10 bits
Аудио: AC-3, 640 kb/s, 6 channels (L R C LFE Ls Rs), 48.0 kHz
Субтитры: русские (форсированные, отключаемые, UTF-8)
Навигация по главам: есть-

MediaInfo

General
Unique ID : 223945964556415067356866713249483070607 (0xA87A6C85210A0A3E9A52FA2CA7801C8F)
Complete name : Indiana.Jones.and.the.Dial.of.Destiny.2160p.SDR.D.Flarrow.Films.mkv
Format : Matroska
Format version : Version 4
File size : 22.7 GiB
Duration : 2 h 34 min
Overall bit rate : 21.0 Mb/s
Frame rate : 23.948 FPS
Encoded date : 2023-10-06 17:58:46 UTC
Writing application : mkvmerge v79.0 ('Funeral Pyres') 64-bit
Writing library : libebml v1.4.4 + libmatroska v1.7.1
Video
ID : 1
Format : HEVC
Format/Info : High Efficiency Video Coding
Format profile : Main 10@L5@High
Codec ID : V_MPEGH/ISO/HEVC
Duration : 2 h 34 min
Bit rate : 20.3 Mb/s
Width : 3 840 pixels
Height : 1 608 pixels
Display aspect ratio : 2.40:1
Frame rate mode : Variable
Frame rate : 23.948 FPS
Color space : YUV
Chroma subsampling : 4:2:0
Bit depth : 10 bits
Bits/(Pixel*Frame) : 0.137
Stream size : 22.0 GiB (97%)
Language : English
Default : Yes
Forced : No
Color range : Limited
Color primaries : BT.709
Transfer characteristics : BT.709
Matrix coefficients : BT.709
Audio
ID : 2
Format : AC-3
Format/Info : Audio Coding 3
Commercial name : Dolby Digital
Codec ID : A_AC3
Duration : 2 h 34 min
Bit rate mode : Constant
Bit rate : 640 kb/s
Channel(s) : 6 channels
Channel layout : L R C LFE Ls Rs
Sampling rate : 48.0 kHz
Frame rate : 31.250 FPS (1536 SPF)
Compression mode : Lossy
Stream size : 709 MiB (3%)
Title : Flarrow Films
Language : Russian
Service kind : Complete Main
Default : Yes
Forced : No
Text
ID : 3
Format : UTF-8
Codec ID : S_TEXT/UTF8
Codec ID/Info : UTF-8 Plain Text
Duration : 2 h 16 min
Bit rate : 4 b/s
Frame rate : 0.018 FPS
Count of elements : 150
Stream size : 4.97 KiB (0%)
Language : Russian
Default : Yes
Forced : No
Menu
00:00:00.000 : en:Chapter 01
00:05:08.350 : en:Chapter 02
00:08:50.030 : en:Chapter 03
00:14:47.804 : en:Chapter 04
00:21:35.920 : en:Chapter 05
00:24:15.372 : en:Chapter 06
00:27:06.626 : en:Chapter 07
00:33:11.700 : en:Chapter 08
00:40:37.979 : en:Chapter 09
00:46:27.954 : en:Chapter 10
00:51:31.675 : en:Chapter 11
00:54:33.773 : en:Chapter 12
00:59:38.995 : en:Chapter 13
01:02:08.311 : en:Chapter 14
01:09:01.558 : en:Chapter 15
01:13:37.125 : en:Chapter 16
01:20:14.147 : en:Chapter 17
01:26:12.172 : en:Chapter 18
01:34:29.544 : en:Chapter 19
01:36:51.186 : en:Chapter 20
01:40:45.170 : en:Chapter 21
01:48:09.489 : en:Chapter 22
01:55:40.398 : en:Chapter 23
02:02:24.803 : en:Chapter 24
02:05:18.143 : en:Chapter 25
02:12:35.830 : en:Chapter 26
02:17:39.884 : en:Chapter 27
02:23:27.607 : en:Chapter 28
--Релиз от: Flarrow Films & -Спасибо за предоставленную аудиодорожку - Flarrow Films!-
AdGuard VPN - бесплатный, надёжный и быстрый VPN
[korsars.pro].t91407.torrent 
Торрент: Зарегистрирован [ 2023-10-06 22:30 ] · 94B7BBB07439FA94CEB3F85F30425B0A6D4E9A72

Скачать .torrent

Размер .torrent файла 227 KB

Статус: проверено
.torrent скачан: 75 раз
Размер: 22,66 GB
Правила
AdGuard VPN - бесплатный, надёжный и быстрый VPN
Похожие темы

Вы не зарегистрированы на нашем сайте. Вам доступна для скачивания только часть контента. Чтобы увидеть весь контент сайта, пожалуйста, зарегистрируйтесь.

Дешевый и быстрый Сидбокс
У Вас отключен VIP статус, поэтому Вам показывается реклама на сайте. Вы можете поддержать наш ресурс и приобрести VIP статус, тем самым отключив показ рекламы на сайте, а ещё VIP пользователи получают 15 инвайтов, которыми можно поделиться с друзьями или знакомыми.
Дешевый и быстрый Сидбокс
[Профиль] [ЛС]
Показать сообщения:    
Ответить на тему

Текущее время: 21-Фев 17:42

Часовой пояс: UTC + 4



Вы не можете начинать темы
Вы не можете отвечать на сообщения
Вы не можете редактировать свои сообщения
Вы не можете удалять свои сообщения
Вы не можете голосовать в опросах
Вы не можете прикреплять файлы к сообщениям
Вы можете скачивать файлы
Анализ сайта korsars.pro Яндекс.Метрика

Материал для зрителей старше 18 летВсе материалы на сайте получены из свободных источников в сети Интернет и представлены исключительно для личного (некоммерческого) использования лицами старше 18 лет.