Секретное вторжение / Secret Invasion [S01] (2023) WEB-DLRip-AVC | КПК | HDrezka Studio

Ответить на тему
Статистика раздачи [Обновить пиров]
Размер:  1,15 GB   |    Зарегистрирован:  8 месяцев 13 дней   |    .torrent скачан:  5 раз
Раздают:  30  [  0 KB/s  ]   Качают:  9  [  0 KB/s  ]   Подробная статистика пиров
   
 
Автор Сообщение

4udaki ®

Оффлайн

Медали


Пол: Мужской

Стаж: 9 лет 5 месяцев

Наличие запрета:

Сообщений: 58650

Откуда: korsars.pro

Отдача: 100 Mb/s

Загрузка: 100 Mb/s



AdGuard VPN - бесплатный, надёжный и быстрый VPN

Создавать темы 05-Авг-2023 09:00

[Цитировать]


Информация о фильме
Название: Секретное вторжение
Оригинальное название: Secret Invasion
Год выхода: 2023
Жанр: фантастика, боевик, драма, приключения
Режиссер: Али Селим
В ролях: Сэмюэл Л. Джексон, Бен Мендельсон, Коби Смолдерс, Оливия Колман, Эмилия Кларк, Кингсли Бен-Адир, Киллиан Скотт, Кристофер МакДональд, Кармен Эджого, Кристофер Го, Мартин Фриман
О фильме:
Мини сериал будет состоять из шести эпизодов и расскажет о Нике Фьюри после событий «Мстители: Финал» и «Человек-паук: Вдали от дома». Понятно, что это видео адаптация известного комикса Marvel, которая повествует о раскрытии заговора цивилизации Скруллов-оборотней. Скруллы — инопланетная раса, меняющая форму, намерена проникнуть в высшие эшелоны человеческого общества и стать теневыми правителями планеты Земля. Ник Фьюри наконец возвращается на Землю, на этот раз с полной седины бородой и без этой культовой его повязки на глазу. Мы видим, что Нику Фьюри после его долгого отпуска за пределами планеты не очень рады на Земле, а Джеймс Роудс говорит Фьюри, что он самый разыскиваемый человек на планете. К счастью для Фьюри, у него все еще есть союзники в лице Талоса, Марии Хилл и агента Сони Фалсворт. То есть они кажутся союзниками, поскольку неизвестно кто из них на самом деле может быть Скруллами под прикрытием, ожидающими своего часа, чтобы нанести удар. Только Фьюри может встать между радикальными Скруллами и их планами на мировое господство. Он и его союзник Скрулл Талос начинают расследование. Они мчатся, опережая время, чтобы предотвратить неминуемое вторжение Скруллов и спасти человечество от катастрофы.

Страна: США
Студия: Marvel Studios
Продолжительность: 6 x ~00:47:00
Перевод: Профессиональный (многоголосый, закадровый) | HDrezka Studio
Файл
Формат: MP4
Качество: WEB-DLRip 360p (исх. WEB-DL 1080p)
Видео: AVC, 640x268, at 24.000 fps, 510-586 kbps
Аудио: AAC LC SBR (HE-AAC), 48.0 kHz, 2 ch, 72 kbps
Субтитры: Русские (forced softsub), Английские (forced hardsub)

MediaInfo

General
Complete name : Secret.Invasion.(2023).Mini-Series/Secret.Invasion.S01E01.HDrS.WEB-DLRip.mp4
Format : MPEG-4
Format profile : Base Media
Codec ID : isom (isom)
File size : 249 MiB
Duration : 52 min 45 s
Overall bit rate mode : Variable
Overall bit rate : 661 kb/s
Encoded date : UTC 2023-08-03 14:15:12
Tagged date : UTC 2023-08-03 14:15:12
Video
ID : 1
Format : AVC
Format/Info : Advanced Video Codec
Format profile : High@L3.2
Format settings : CABAC / 14 Ref Frames
Format settings, CABAC : Yes
Format settings, RefFrames : 14 frames
Codec ID : avc1
Codec ID/Info : Advanced Video Coding
Duration : 52 min 44 s
Bit rate : 586 kb/s
Maximum bit rate : 4 310 kb/s
Width : 640 pixels
Height : 268 pixels
Display aspect ratio : 2.40:1
Frame rate mode : Constant
Frame rate : 24.000 FPS
Color space : YUV
Chroma subsampling : 4:2:0
Bit depth : 8 bits
Scan type : Progressive
Bits/(Pixel*Frame) : 0.142
Stream size : 221 MiB (89%)
Title : Resurrection
Writing library : x264 core 133 r2334 a3ac64b
Encoding settings : cabac=1 / ref=14 / deblock=1:-1:-1 / analyse=0x3:0x133 / me=umh / subme=10 / psy=1 / psy_rd=1.00:0.00 / mixed_ref=1 / me_range=32 / chroma_me=1 / trellis=2 / 8x8dct=1 / cqm=0 / deadzone=21,11 / fast_pskip=0 / chroma_qp_offset=-2 / threads=6 / lookahead_threads=1 / sliced_threads=0 / nr=0 / decimate=1 / interlaced=0 / bluray_compat=0 / constrained_intra=0 / bframes=13 / b_pyramid=2 / b_adapt=2 / b_bias=0 / direct=1 / weightb=1 / open_gop=0 / weightp=2 / keyint=240 / keyint_min=24 / scenecut=40 / intra_refresh=0 / rc=crf / mbtree=0 / crf=18.0 / qcomp=0.60 / qpmin=0 / qpmax=69 / qpstep=4 / ip_ratio=1.40 / pb_ratio=1.30 / aq=1:1.00
Language : English
Encoded date : UTC 2023-07-02 06:00:23
Tagged date : UTC 2023-08-03 14:15:23
Color range : Limited
Color primaries : BT.709
Transfer characteristics : BT.709
Matrix coefficients : BT.709
Codec configuration box : avcC
Audio
ID : 2
Format : AAC LC SBR
Format/Info : Advanced Audio Codec Low Complexity with Spectral Band Replication
Commercial name : HE-AAC
Format settings : Explicit
Codec ID : mp4a-40-2
Duration : 52 min 45 s
Bit rate mode : Variable
Bit rate : 72.0 kb/s
Maximum bit rate : 186 kb/s
Channel(s) : 2 channels
Channel layout : L R
Sampling rate : 48.0 kHz
Frame rate : 23.438 FPS (2048 SPF)
Compression mode : Lossy
Stream size : 27.1 MiB (11%)
Title : MVO - HDrezka Studio
Language : Russian
Encoded date : UTC 2023-08-03 14:15:21
Tagged date : UTC 2023-08-03 14:15:23
Text
ID : 3
Format : Timed Text
Codec ID : tx3g
Duration : 20 min 38 s
Bit rate mode : Variable
Bit rate : 1 b/s
Stream size : 151 Bytes (0%)
Title : forced
Language : Russian
Forced : No
Encoded date : UTC 2023-08-03 14:15:23
Tagged date : UTC 2023-08-03 14:15:23

Скриншоты

AdGuard VPN - бесплатный, надёжный и быстрый VPN
[korsars.pro].t88138.torrent 
Торрент: Зарегистрирован [ 2023-08-05 09:00 ] · 872B4001984B933D5951BA88B0700B2884F01BA5

Скачать .torrent

Размер .torrent файла 24 KB

Статус: проверено
.torrent скачан: 5 раз
Размер: 1,15 GB
Правила
Drago893(13-Авг-23)
AdGuard VPN - бесплатный, надёжный и быстрый VPN
Похожие темы

Вы не зарегистрированы на нашем сайте. Вам доступна для скачивания только часть контента. Чтобы увидеть весь контент сайта, пожалуйста, зарегистрируйтесь.

Дешевый и быстрый Сидбокс
У Вас отключен VIP статус, поэтому Вам показывается реклама на сайте. Вы можете поддержать наш ресурс и приобрести VIP статус, тем самым отключив показ рекламы на сайте, а ещё VIP пользователи получают 15 инвайтов, которыми можно поделиться с друзьями или знакомыми.
Дешевый и быстрый Сидбокс
[Профиль] [ЛС]
Показать сообщения:    
Ответить на тему

Текущее время: 18-Апр 18:14

Часовой пояс: UTC + 4



Вы не можете начинать темы
Вы не можете отвечать на сообщения
Вы не можете редактировать свои сообщения
Вы не можете удалять свои сообщения
Вы не можете голосовать в опросах
Вы не можете прикреплять файлы к сообщениям
Вы можете скачивать файлы
Анализ сайта korsars.pro Яндекс.Метрика

Материал для зрителей старше 18 летВсе материалы на сайте получены из свободных источников в сети Интернет и представлены исключительно для личного (некоммерческого) использования лицами старше 18 лет.