Секретное вторжение / Secret Invasion [01x01-02 из 06] (2023) WEB-DL-HEVC 2160p | 4K | Dolby Vision TV | D, P

Ответить на тему
Статистика раздачи [Обновить пиров]
Размер:  16,29 GB   |    Зарегистрирован:  9 месяцев 15 дней   |    .torrent скачан:  1 раз
Раздают:  96  [  0 KB/s  ]   Качают:  71  [  0 KB/s  ]   Подробная статистика пиров
   
 
Автор Сообщение

4udaki ®

Оффлайн

Медали


Пол: Мужской

Стаж: 9 лет 5 месяцев

Наличие запрета:

Сообщений: 58650

Откуда: korsars.pro

Отдача: 100 Mb/s

Загрузка: 100 Mb/s



AdGuard VPN - бесплатный, надёжный и быстрый VPN

Создавать темы 02-Июл-2023 21:00

[Цитировать]



Информация о фильме
Название: Секретное вторжение
Оригинальное название: Secret Invasion
Год выхода: 2023
Жанр: Боевик, приключения, драма, комикс, супергерой
Режиссер: Али Селим
В ролях: Сэмюэл Л. Джексон, Бен Мендельсон, Коби Смолдерс, Оливия Колман, Эмилия Кларк, Кингсли Бен-Адир, Киллиан Скотт, Кристофер МакДональд, Кармен Эджого, Кристофер Го, Мартин Фриман
О фильме:
Мини сериал будет состоять из шести эпизодов и расскажет о Нике Фьюри после событий «Мстители: Финал» и «Человек-паук: Вдали от дома». Понятно, что это видео адаптация известного комикса Marvel, которая повествует о раскрытии заговора цивилизации Скруллов-оборотней. Скруллы — инопланетная раса, меняющая форму, намерена проникнуть в высшие эшелоны человеческого общества и стать теневыми правителями планеты Земля. Ник Фьюри наконец возвращается на Землю, на этот раз с полной седины бородой и без этой культовой его повязки на глазу. Мы видим, что Нику Фьюри после его долгого отпуска за пределами планеты не очень рады на Земле, а Джеймс Роудс говорит Фьюри, что он самый разыскиваемый человек на планете. К счастью для Фьюри, у него все еще есть союзники в лице Талоса, Марии Хилл и агента Сони Фалсворт. То есть они кажутся союзниками, поскольку неизвестно кто из них на самом деле может быть Скруллами под прикрытием, ожидающими своего часа, чтобы нанести удар. Только Фьюри может встать между радикальными Скруллами и их планами на мировое господство. Он и его союзник Скрулл Талос начинают расследование. Они мчатся, опережая время, чтобы предотвратить неминуемое вторжение Скруллов и спасти человечество от катастрофы.

Страна: США
Студия: Marvel Studios Inc.
Продолжительность: 6 x ~ 00:52:00
Перевод: Дублированный(неофициальный), профессиональный многоголосый
Файл
Формат: MP4
Кодек: H.265
Качество: WEB-DL-HEVC 2160p | 4K | Dolby Vision TV
Видео: HEVC, Dolby Vision Profile 5, ~16,0 Mбит/с, 3840x2160, 24.000 кадр/с
Звук:
Аудио #1 Русский: AC3, 48.0 kHz, 5.1 ch, 448 Kbps [Дубляж, Red Head Sound]
Аудио #2 Русский: EAC3+Atmos, 48.0 kHz, 5.1 ch, 768 Kbps [MVO, LostFilm]
Аудио #3 Русский: EAC3+Atmos, 48.0 kHz, 5.1 ch, 768 Kbps [MVO, HDRezka Studio]
Аудио #4 Русский: EAC3+Atmos, 48.0 kHz, 5.1 ch, 768 Kbps [MVO, TVShows]
Аудио #5 Русский: EAC3+Atmos, 48.0 kHz, 5.1 ch, 768 Kbps [MVO, NewComers]
Аудио #6 Украиский: EAC3+Atmos, 48.0 kHz, 5.1 ch, 768 Kbps [MVO, Цікава Ідея]
Аудио #7 Украиский: AC3, 48.0 kHz, 5.1 ch, 384 Kbps [MVO, DniproFilm]
Аудио #8 English: EAC3+Atmos, 48.0 kHz, 5.1 ch, 768 Kbps
Субтитры: русские(forced, полные(x2)), украинские(forced(x2)), английские(full, SDH)
*Дорожки 2-6 получены путем наложения выделенных голосов на центр декодированной оригинальной ATMOS дорожки. При использовании данных дорожек в сторонних релизах, упоминание об авторстве в лице релиз-группы DVT(Dolby Vision Torrents) обязательно.
За дубляж спасибо Red Head Sound и Scarabey
Работа со звуком и сборка релиза - DVT
Дополнительная информация:
Релиз в MP4 в 5-м профиле Dolby Vision для воспроизведении на устройствах с поддержкой DV. Протестировано на тв-боксах Nvidia Shield 2019, Zidoo Z1000 Pro, Amazon FireTV Stick 4k, TiVo Stream 4K и Ugoos AM6+ и многих других, а также на встроенных плеерах телевизоров LG, Sony, Phillips и Panasonic.
На устройствах без поддержки Dolby Vision проигрываться не будет(или будет, но с искаженными цветами), так как в видеоряде отсутствует HDR слой

Mediainfo

Общее
Полное имя : T:RELEASESSecret InvasionSecret.Invasion.S01.2023.2160p.WEB-DL.DDP5.1.Atmos.DoVi.by.DVTSecret.Invasion.S01E01.2023.2160p.WEB-DL.DDP5.1.Atmos.DoVi.by.DVT.mp4
Формат : MPEG-4
Профиль формата : Base Media
Идентификатор кодека : isom (isom/dby1/iso2/mp41)
Размер файла : 7,88 Гбайт
Продолжительность : 52 м. 58 с.
Режим общего битрейта : Переменный
Общий поток : 21,3 Мбит/сек
Название фильма : Secret Invasion [S01E01] (2023) - Release by Dolby Vision Torrents
Дата пометки : UTC 2023-07-01 08:13:37
Программа кодирования : Lavf59.16.100
Обложка : Yes
Видео
Идентификатор : 1
Формат : HEVC
Формат/Информация : High Efficiency Video Coding
Профиль формата : Main 10@L5@High
HDR format : Dolby Vision, Version 1.0, dvhe.05.06, BL+RPU
Идентификатор кодека : dvhe
Идентификатор кодека/Информация : High Efficiency Video Coding with Dolby Vision
Продолжительность : 52 м. 44 с.
Битрейт : 15,9 Мбит/сек
Ширина : 3 840 пикселей
Высота : 2 160 пикселей
Соотношение сторон : 16:9
Режим частоты кадров : Постоянный
Частота кадров : 24,000 кадра/сек
Цветовое пространство : YUV
Субдискретизация насыщенности : 4:2:0
Битовая глубина : 10 бит
Бит/(Пиксели*Кадры) : 0.080
Размер потока : 5,87 Гбайт (74%)
Заголовок : Secret Invasion [S01E01] (2023)
Язык : English
Дата пометки : UTC 2023-07-01 08:13:37
Цветовой диапазон : Full
Menus : 18
Codec configuration box : hvcC+dvcC
Аудио #1
Идентификатор : 3
Формат : AC-3
Формат/Информация : Audio Coding 3
Коммерческое название : Dolby Digital
Идентификатор кодека : ac-3
Продолжительность : 52 м. 44 с.
Вид битрейта : Постоянный
Битрейт : 448 Кбит/сек
Каналы : 6 каналов
Channel layout : L R C LFE Ls Rs
Частота : 48,0 КГц
Частота кадров : 31,250 кадров/сек (1536 SPF)
Метод сжатия : С потерями
Размер потока : 169 Мбайт (2%)
Заголовок : Дубляж, Red Head Sound
Язык : Russian
Service kind : Complete Main
Default : Да
Alternate group : 1
Дата пометки : UTC 2023-07-01 08:13:37
Menus : 18
Аудио #2
Идентификатор : 4
Формат : E-AC-3 JOC
Формат/Информация : Enhanced AC-3 with Joint Object Coding
Коммерческое название : Dolby Digital Plus with Dolby Atmos
Идентификатор кодека : ec-3
Продолжительность : 52 м. 44 с.
Вид битрейта : Постоянный
Битрейт : 768 Кбит/сек
Каналы : 6 каналов
Channel layout : L R C LFE Ls Rs
Частота : 48,0 КГц
Частота кадров : 31,250 кадров/сек (1536 SPF)
Метод сжатия : С потерями
Размер потока : 290 Мбайт (4%)
Заголовок : MVO, LostFilm
Язык : Russian
Service kind : Complete Main
Default : Нет
Alternate group : 1
Дата пометки : UTC 2023-07-01 08:13:37
Menus : 18
Complexity index : Not present / 16
Number of dynamic objects : 15
Bed channel count : 1 канал
Bed channel configuration : LFE
Аудио #3
Идентификатор : 5
Формат : E-AC-3 JOC
Формат/Информация : Enhanced AC-3 with Joint Object Coding
Коммерческое название : Dolby Digital Plus with Dolby Atmos
Идентификатор кодека : ec-3
Продолжительность : 52 м. 44 с.
Вид битрейта : Постоянный
Битрейт : 768 Кбит/сек
Каналы : 6 каналов
Channel layout : L R C LFE Ls Rs
Частота : 48,0 КГц
Частота кадров : 31,250 кадров/сек (1536 SPF)
Метод сжатия : С потерями
Размер потока : 290 Мбайт (4%)
Заголовок : MVO, HDRezka Studio
Язык : Russian
Service kind : Complete Main
Default : Нет
Alternate group : 1
Дата пометки : UTC 2023-07-01 08:13:37
Menus : 18
Complexity index : Not present / 16
Number of dynamic objects : 15
Bed channel count : 1 канал
Bed channel configuration : LFE
Аудио #4
Идентификатор : 6
Формат : E-AC-3 JOC
Формат/Информация : Enhanced AC-3 with Joint Object Coding
Коммерческое название : Dolby Digital Plus with Dolby Atmos
Идентификатор кодека : ec-3
Продолжительность : 52 м. 44 с.
Вид битрейта : Постоянный
Битрейт : 768 Кбит/сек
Каналы : 6 каналов
Channel layout : L R C LFE Ls Rs
Частота : 48,0 КГц
Частота кадров : 31,250 кадров/сек (1536 SPF)
Метод сжатия : С потерями
Размер потока : 290 Мбайт (4%)
Заголовок : MVO, TVShows
Язык : Russian
Service kind : Complete Main
Default : Нет
Alternate group : 1
Дата пометки : UTC 2023-07-01 08:13:37
Menus : 18
Complexity index : Not present / 16
Number of dynamic objects : 15
Bed channel count : 1 канал
Bed channel configuration : LFE
Аудио #5
Идентификатор : 7
Формат : E-AC-3 JOC
Формат/Информация : Enhanced AC-3 with Joint Object Coding
Коммерческое название : Dolby Digital Plus with Dolby Atmos
Идентификатор кодека : ec-3
Продолжительность : 52 м. 44 с.
Вид битрейта : Постоянный
Битрейт : 768 Кбит/сек
Каналы : 6 каналов
Channel layout : L R C LFE Ls Rs
Частота : 48,0 КГц
Частота кадров : 31,250 кадров/сек (1536 SPF)
Метод сжатия : С потерями
Размер потока : 290 Мбайт (4%)
Заголовок : MVO, NewComers
Язык : Russian
Service kind : Complete Main
Default : Нет
Alternate group : 1
Дата пометки : UTC 2023-07-01 08:13:37
Menus : 18
Complexity index : Not present / 16
Number of dynamic objects : 15
Bed channel count : 1 канал
Bed channel configuration : LFE
Аудио #6
Идентификатор : 8
Формат : E-AC-3 JOC
Формат/Информация : Enhanced AC-3 with Joint Object Coding
Коммерческое название : Dolby Digital Plus with Dolby Atmos
Идентификатор кодека : ec-3
Продолжительность : 52 м. 45 с.
Вид битрейта : Постоянный
Битрейт : 768 Кбит/сек
Каналы : 6 каналов
Channel layout : L R C LFE Ls Rs
Частота : 48,0 КГц
Частота кадров : 31,250 кадров/сек (1536 SPF)
Метод сжатия : С потерями
Размер потока : 290 Мбайт (4%)
Заголовок : MVO, Цікава Ідея
Язык : Ukrainian
Service kind : Complete Main
Default : Нет
Alternate group : 1
Дата пометки : UTC 2023-07-01 08:13:37
Menus : 18
Complexity index : Not present / 16
Number of dynamic objects : 15
Bed channel count : 1 канал
Bed channel configuration : LFE
Аудио #7
Идентификатор : 9
Формат : AC-3
Формат/Информация : Audio Coding 3
Коммерческое название : Dolby Digital
Идентификатор кодека : ac-3
Продолжительность : 52 м. 58 с.
Вид битрейта : Постоянный
Битрейт : 384 Кбит/сек
Каналы : 6 каналов
Channel layout : L R C LFE Ls Rs
Частота : 48,0 КГц
Частота кадров : 31,250 кадров/сек (1536 SPF)
Метод сжатия : С потерями
Размер потока : 145 Мбайт (2%)
Заголовок : MVO, DniproFilm/HDRezka Studio
Язык : Ukrainian
Service kind : Complete Main
Default : Нет
Alternate group : 1
Дата пометки : UTC 2023-07-01 08:13:37
Menus : 18
Аудио #8
Идентификатор : 10
Формат : E-AC-3 JOC
Формат/Информация : Enhanced AC-3 with Joint Object Coding
Коммерческое название : Dolby Digital Plus with Dolby Atmos
Идентификатор кодека : ec-3
Продолжительность : 52 м. 44 с.
Вид битрейта : Постоянный
Битрейт : 768 Кбит/сек
Каналы : 6 каналов
Channel layout : L R C LFE Ls Rs
Частота : 48,0 КГц
Частота кадров : 31,250 кадров/сек (1536 SPF)
Метод сжатия : С потерями
Размер потока : 290 Мбайт (4%)
Заголовок : Original
Язык : English
Service kind : Complete Main
Default : Нет
Alternate group : 1
Дата пометки : UTC 2023-07-01 08:13:37
Menus : 18
Complexity index : Not present / 16
Number of dynamic objects : 15
Bed channel count : 1 канал
Bed channel configuration : LFE
Текст #1
Идентификатор : 11
Формат : Timed Text
Режим смешивания : sbtl
Идентификатор кодека : tx3g
Продолжительность : 20 м. 32 с.
Вид битрейта : Переменный
Битрейт : 1 бит/сек
Частота кадров : 0,006 кадр/сек
Размер потока : 151 байт (0%)
Заголовок : Forced
Язык : Russian
Default : Да
Forced : Нет
Alternate group : 3
Menus : 18
Текст #2
Идентификатор : 12
Формат : Timed Text
Режим смешивания : sbtl
Идентификатор кодека : tx3g
Продолжительность : 49 м. 33 с.
Вид битрейта : Переменный
Битрейт : 74 бит/сек
Частота кадров : 0,246 кадр/сек
Размер потока : 26,9 Кбайт (0%)
Заголовок : Full, Где тексты, Лебовски?
Язык : Russian
Default : Нет
Forced : Нет
Alternate group : 3
Menus : 18
Текст #3
Идентификатор : 13
Формат : Timed Text
Режим смешивания : sbtl
Идентификатор кодека : tx3g
Продолжительность : 49 м. 33 с.
Вид битрейта : Переменный
Битрейт : 72 бит/сек
Частота кадров : 0,318 кадр/сек
Размер потока : 26,1 Кбайт (0%)
Заголовок : Full, NewComers
Язык : Russian
Default : Нет
Forced : Нет
Alternate group : 3
Menus : 18
Текст #4
Идентификатор : 14
Формат : Timed Text
Режим смешивания : sbtl
Идентификатор кодека : tx3g
Продолжительность : 42 м. 12 с.
Вид битрейта : Переменный
Битрейт : 3 бит/сек
Частота кадров : 0,015 кадр/сек
Размер потока : 795 байт (0%)
Заголовок : Forced, Цікава Ідея
Язык : Ukrainian
Default : Нет
Forced : Нет
Alternate group : 3
Menus : 18
Текст #5
Идентификатор : 15
Формат : Timed Text
Режим смешивания : sbtl
Идентификатор кодека : tx3g
Продолжительность : 42 м. 13 с.
Вид битрейта : Переменный
Битрейт : 4 бит/сек
Частота кадров : 0,021 кадр/сек
Размер потока : 1,15 Кбайт (0%)
Заголовок : Forced, HDRezka Studio
Язык : Ukrainian
Default : Нет
Forced : Нет
Alternate group : 3
Menus : 18
Текст #6
Идентификатор : 16
Формат : Timed Text
Режим смешивания : sbtl
Идентификатор кодека : tx3g
Продолжительность : 49 м. 33 с.
Вид битрейта : Переменный
Битрейт : 48 бит/сек
Частота кадров : 0,245 кадр/сек
Размер потока : 17,5 Кбайт (0%)
Заголовок : Full
Язык : English
Default : Нет
Forced : Нет
Alternate group : 3
Menus : 18
Текст #7
Идентификатор : 17
Формат : Timed Text
Режим смешивания : sbtl
Идентификатор кодека : tx3g
Продолжительность : 49 м. 45 с.
Вид битрейта : Переменный
Битрейт : 54 бит/сек
Частота кадров : 0,291 кадр/сек
Размер потока : 19,5 Кбайт (0%)
Заголовок : SDH
Язык : English
Default : Нет
Forced : Нет
Alternate group : 3
Menus : 18
Меню
00:00:00.000 : Chapter 1
00:14:58.830 : Chapter 2
00:24:18.914 : Chapter 3
00:34:06.080 : Chapter 4
00:44:34.705 : Chapter 5
00:50:08.914 : Credits

Скриншоты

Скриншоты получены с помощью специальной сборки плеера MPV с поддержкой Dolby Vision. Если ваше устройство не умеет проигрывать этот формат то изображение будет в сиренево-зелёной цветовой гамме
Релиз от: Dolby Vision Torrents
AdGuard VPN - бесплатный, надёжный и быстрый VPN
[korsars.pro].t86534.torrent 
Торрент: Зарегистрирован [ 2023-07-02 21:00 ] · 794F2DF1CB1B92B8B73B97B3E95B826815253961

Скачать .torrent

Размер .torrent файла 164 KB

Статус: проверено
.torrent скачан: 1 раз
Размер: 16,29 GB
Правила
AdGuard VPN - бесплатный, надёжный и быстрый VPN
Похожие темы

Вы не зарегистрированы на нашем сайте. Вам доступна для скачивания только часть контента. Чтобы увидеть весь контент сайта, пожалуйста, зарегистрируйтесь.

Дешевый и быстрый Сидбокс
У Вас отключен VIP статус, поэтому Вам показывается реклама на сайте. Вы можете поддержать наш ресурс и приобрести VIP статус, тем самым отключив показ рекламы на сайте, а ещё VIP пользователи получают 15 инвайтов, которыми можно поделиться с друзьями или знакомыми.
Дешевый и быстрый Сидбокс
[Профиль] [ЛС]
Показать сообщения:    
Ответить на тему

Текущее время: 18-Апр 18:16

Часовой пояс: UTC + 4



Вы не можете начинать темы
Вы не можете отвечать на сообщения
Вы не можете редактировать свои сообщения
Вы не можете удалять свои сообщения
Вы не можете голосовать в опросах
Вы не можете прикреплять файлы к сообщениям
Вы можете скачивать файлы
Анализ сайта korsars.pro Яндекс.Метрика

Материал для зрителей старше 18 летВсе материалы на сайте получены из свободных источников в сети Интернет и представлены исключительно для личного (некоммерческого) использования лицами старше 18 лет.