Мандалорец / The Mandalorian [03x01 из 08] (2023) WEB-DL-HEVC 2160p | 4K | HDR | AlexFilm

Ответить на тему
Статистика раздачи [Обновить пиров]
Размер:  3,6 GB   |    Зарегистрирован:  1 год 1 месяц   |    .torrent скачан:  4 раза
Раздают:  342  [  0 KB/s  ]   Качают:  91  [  0 KB/s  ]   Подробная статистика пиров
   
 
Автор Сообщение

4udaki ®

Оффлайн

Медали


Пол: Мужской

Стаж: 9 лет 5 месяцев

Наличие запрета:

Сообщений: 58650

Откуда: korsars.pro

Отдача: 100 Mb/s

Загрузка: 100 Mb/s



AdGuard VPN - бесплатный, надёжный и быстрый VPN

Создавать темы 03-Мар-2023 01:00

[Цитировать]


Информация о сериале
Название: Мандалорец
Оригинальное название: The Mandalorian
Год выхода: 2023
Жанр: Фантастика, фэнтези, боевик, приключения
Режиссёр: Рик Фамуйива, Дэйв Филони, Брайс Даллас Ховард
В ролях: Педро Паскаль, Кайл Пацек, Брендан Уэйн, Бернард Баллен, Александра Гилман, Луис Ричард Гомес, Джамал Антар, Тейт Флетчер, Тони Табоада, Омид Абтахи и др.
Описание:
Одинокий мандалорец-наёмник живёт на краю обитаемой галактики, куда не дотягивается закон Новой Республики. Представитель некогда могучей расы благородных воинов теперь вынужден влачить жалкое существование среди отбросов общества.

Страна: США
Студия: Lucasfilm Ltd., Walt Disney Studios
Продолжительность: ~00:35:00
Перевод: Профессиональный (многоголосый закадровый) | AlexFilm
Файл
Кодек: MPEG-H HEVC
Качество: WEB-DL-HEVC 2160p | 4K | HDR
Видео: 3840x2160 (16:9), 24 fps, ~ 13 Mbps, 10 бит
Аудио №1: AC3, 48,0 kHz, 6 ch, 384 kbps | AlexFilm
Аудио №2: AC3, 48,0 kHz, 6 ch, 640 kbps | Original
Аудио №3: EAC3 JOC, 48,0 kHz, 6 ch, 768 kbps | Original
Субтитры: Русские (Full |«Где тексты, Лебовски?»|, английские (Full, SDH)
Реклама: Отсутствует (присутствует только информация о спонсоре)
Исходник: The.Mandalorian.S03.2160p.DSNP.WEB-DL.DDP5.1.HDR.H.265-NTb

Список серий:

01. Chapter 17: The Apostate

MediaInfo:

Complete name : D:The_Mandalorian_(s03)_AlexFilm_2160pThe.Mandalorian.2023.S03E01.2160p.DSNP.WEB-DL.DDP5.1.HDR.x265-NTb_EniaHD.mkv
Format : Matroska
Format version : Version 4
File size : 3.60 GiB
Duration : 35 min 16 s
Overall bit rate : 14.6 Mb/s
Encoded date : UTC 2023-03-02 13:15:08
Writing application : mkvmerge v58.0.0 ('Supper's Ready') 64-bit
Writing library : libebml v1.4.2 + libmatroska v1.6.4
Video
ID : 1
Format : HEVC
Format/Info : High Efficiency Video Coding
Format profile : Main 10@L5@High
HDR format : SMPTE ST 2086, HDR10 compatible
Codec ID : V_MPEGH/ISO/HEVC
Duration : 35 min 16 s
Bit rate : 12.8 Mb/s
Width : 3 840 pixels
Height : 2 160 pixels
Display aspect ratio : 16:9
Frame rate mode : Constant
Frame rate : 24.000 FPS
Color space : YUV
Chroma subsampling : 4:2:0
Bit depth : 10 bits
Bits/(Pixel*Frame) : 0.064
Stream size : 3.16 GiB (88%)
Title : Release by EniaHD
Default : Yes
Forced : No
Color range : Limited
Color primaries : BT.2020
Transfer characteristics : PQ
Matrix coefficients : BT.2020 non-constant
Mastering display color pri : Display P3
Mastering display luminance : min: 0.0000 cd/m2, max: 1000 cd/m2
Audio #1
ID : 2
Format : AC-3
Format/Info : Audio Coding 3
Commercial name : Dolby Digital
Codec ID : A_AC3
Duration : 35 min 16 s
Bit rate mode : Constant
Bit rate : 384 kb/s
Channel(s) : 6 channels
Channel layout : L R C LFE Ls Rs
Sampling rate : 48.0 kHz
Frame rate : 31.250 FPS (1536 SPF)
Compression mode : Lossy
Stream size : 96.9 MiB (3%)
Title : AlexFilm
Language : Russian
Service kind : Complete Main
Default : Yes
Forced : No
Audio #2
ID : 3
Format : AC-3
Format/Info : Audio Coding 3
Commercial name : Dolby Digital
Codec ID : A_AC3
Duration : 35 min 16 s
Bit rate mode : Constant
Bit rate : 640 kb/s
Channel(s) : 6 channels
Channel layout : L R C LFE Ls Rs
Sampling rate : 48.0 kHz
Frame rate : 31.250 FPS (1536 SPF)
Compression mode : Lossy
Stream size : 161 MiB (4%)
Language : English
Service kind : Complete Main
Default : No
Forced : No
Audio #3
ID : 4
Format : E-AC-3 JOC
Format/Info : Enhanced AC-3 with Joint Object Coding
Commercial name : Dolby Digital Plus with Dolby Atmos
Codec ID : A_EAC3
Duration : 35 min 16 s
Bit rate mode : Constant
Bit rate : 768 kb/s
Channel(s) : 6 channels
Channel layout : L R C LFE Ls Rs
Sampling rate : 48.0 kHz
Frame rate : 31.250 FPS (1536 SPF)
Compression mode : Lossy
Stream size : 194 MiB (5%)
Language : English
Service kind : Complete Main
Default : No
Forced : No
Complexity index : 16
Number of dynamic objects : 15
Bed channel count : 1 channel
Bed channel configuration : LFE
Text #1
ID : 5
Format : UTF-8
Codec ID : S_TEXT/UTF8
Codec ID/Info : UTF-8 Plain Text
Duration : 32 min 16 s
Bit rate : 71 b/s
Count of elements : 305
Stream size : 17.0 KiB (0%)
Title : Full |Где тексты, Лебовски?|
Language : Russian
Default : No
Forced : No
Text #2
ID : 6
Format : UTF-8
Codec ID : S_TEXT/UTF8
Codec ID/Info : UTF-8 Plain Text
Duration : 32 min 16 s
Bit rate : 43 b/s
Count of elements : 303
Stream size : 10.3 KiB (0%)
Title : Full
Language : English
Default : No
Forced : No
Text #3
ID : 7
Format : UTF-8
Codec ID : S_TEXT/UTF8
Codec ID/Info : UTF-8 Plain Text
Duration : 32 min 16 s
Bit rate : 52 b/s
Count of elements : 408
Stream size : 12.5 KiB (0%)
Title : SDH
Language : English
Default : No
Forced : No

Раздача ведётся путём добавления новых серий:

При каждом добавлении создаётся новый торрент. Чтобы начать докачку новой серии, пользователям необходимо сделать следующее:
- остановить скачивание;
- удалить старый торрент у себя из клиента (старые серии удалять не надо);
- скачать новый торрент и запустить его у себя в клиенте вместо старого, при этом указать клиенту путь в старую папку, куда и должно происходить скачивание новых серий.

Скриншоты

AdGuard VPN - бесплатный, надёжный и быстрый VPN
[korsars.pro].t79602.torrent 
Торрент: Зарегистрирован [ 2023-03-03 01:00 ] · A50EBC02446A87185EE5110369DE0C510EDCAE64

Скачать .torrent

Размер .torrent файла 19 KB

Статус: проверено
.torrent скачан: 4 раз
Размер: 3,6 GB
Правила
AdGuard VPN - бесплатный, надёжный и быстрый VPN
Похожие темы

Вы не зарегистрированы на нашем сайте. Вам доступна для скачивания только часть контента. Чтобы увидеть весь контент сайта, пожалуйста, зарегистрируйтесь.

Дешевый и быстрый Сидбокс
У Вас отключен VIP статус, поэтому Вам показывается реклама на сайте. Вы можете поддержать наш ресурс и приобрести VIP статус, тем самым отключив показ рекламы на сайте, а ещё VIP пользователи получают 15 инвайтов, которыми можно поделиться с друзьями или знакомыми.
Дешевый и быстрый Сидбокс
[Профиль] [ЛС]
Показать сообщения:    
Ответить на тему

Текущее время: 18-Апр 18:32

Часовой пояс: UTC + 4



Вы не можете начинать темы
Вы не можете отвечать на сообщения
Вы не можете редактировать свои сообщения
Вы не можете удалять свои сообщения
Вы не можете голосовать в опросах
Вы не можете прикреплять файлы к сообщениям
Вы можете скачивать файлы
Анализ сайта korsars.pro Яндекс.Метрика

Материал для зрителей старше 18 летВсе материалы на сайте получены из свободных источников в сети Интернет и представлены исключительно для личного (некоммерческого) использования лицами старше 18 лет.