Андор / Andor [01x01-03 из 12] (2022) WEB-DL 1080p | HDRezka Studio

Ответить на тему
Статистика раздачи [Обновить пиров]
Размер:  5,91 GB   |    Зарегистрирован:  1 год 6 месяцев   |    .torrent скачан:  19 раз
Раздают:  1348  [  0 KB/s  ]   Качают:  315  [  0 KB/s  ]   Подробная статистика пиров
   
 
Автор Сообщение

4udaki ®

Оффлайн

Медали


Пол: Мужской

Стаж: 9 лет 5 месяцев

Наличие запрета:

Сообщений: 58650

Откуда: korsars.pro

Отдача: 100 Mb/s

Загрузка: 100 Mb/s



AdGuard VPN - бесплатный, надёжный и быстрый VPN

Создавать темы 22-Сен-2022 17:00

[Цитировать]


Название: Андор
Оригинальное название: Andor
Год выхода: 2022
Жанр: Фантастика, боевик, триллер, драма, приключения
Режиссер: Бенджамин Карон, Тоби Хэйнс, Сюзанна Уайт
В ролях:
Диего Луна, Женевьев О`Рейли, Алекс Фернс, Уилф Сколдинг, Нуф Макьюэн, Адриа Архона, Клеменс Шик, Энтон Саундерс, Дениз Гоф, Александр Боуман и др.
Описание сериала:
Действие происходит за пять лет до событий фильма «Изгой-один» и рассказывает о группе персонажей в период формирования Повстанческого альянса в целях борьбы против Галактической Империи. Один из таких персонажей — Кассиан Андор, вор, который становится революционером и в итоге присоединяется к сопротивлению.
Страна: США
Студия: Lucasfilm
Продолжительность: ~00:40:00
Перевод: Профессиональный (многоголосый, закадровый) HDRezka Studio
Субтитры: Русские (Forced), английские (Full, SDH)

Файл
Формат: MKV
Качество: WEB-DL (1080p)
Видео: 1920x1080 (16:9), 24,000 fps, AVC (х264), High@L4, ~5985 kbps avg, 0.120 bit/pixel
Аудио RUS: 48 kHz, AC3, 3/2 (L,C,R,l,r) + LFE ch, ~448 kbps avg
Аудио ENG: 48 kHz, E-AC3 JOC + Atmos, 3/2 (L,C,R,l,r) + LFE ch, ~768 kbps avg

MediaInfo

Общее
Уникальный идентификатор : 261070633236560154937463910544222972965 (0xC4686000FC60A7AEDDEE3D00853BEC25)
Полное имя : Andor.2022.S01E01.WEB-DL.1080p.DSNP.HDREZKA.STUDIO.mkv
Формат : Matroska
Версия формата : Version 4
Размер файла : 1,97 Гбайт
Продолжительность : 39 м. 10 с.
Режим общего битрейта : Переменный
Общий поток : 7 204 Кбит/сек
Дата кодирования : UTC 2022-09-22 02:35:42
Программа кодирования : mkvmerge v68.0.0 ('The Curtain') 64-bit
Библиотека кодирования : libebml v1.4.2 + libmatroska v1.6.4
Видео
Идентификатор : 1
Формат : AVC
Формат/Информация : Advanced Video Codec
Профиль формата : High@L4
Настройки формата : CABAC / 4 Ref Frames
Параметр CABAC формата : Да
Параметр RefFrames формата : 4 кадра
Идентификатор кодека : V_MPEG4/ISO/AVC
Продолжительность : 39 м. 10 с.
Вид битрейта : Переменный
Битрейт : 5 985 Кбит/сек
Максимальный битрейт : 12,7 Мбит/сек
Ширина : 1 920 пикселей
Высота : 1 080 пикселей
Соотношение сторон : 16:9
Режим частоты кадров : Постоянный
Частота кадров : 24,000 кадра/сек
Цветовое пространство : YUV
Субдискретизация насыщенности : 4:2:0
Битовая глубина : 8 бит
Тип развёртки : Прогрессивная
Бит/(Пиксели*Кадры) : 0.120
Размер потока : 1,64 Гбайт (83%)
Default : Да
Forced : Нет
Цветовой диапазон : Limited
Основные цвета : BT.709
Характеристики трансфера : BT.709
Коэффициенты матрицы : BT.709
Аудио #1
Идентификатор : 2
Формат : AC-3
Формат/Информация : Audio Coding 3
Коммерческое название : Dolby Digital
Идентификатор кодека : A_AC3
Продолжительность : 39 м. 10 с.
Вид битрейта : Постоянный
Битрейт : 448 Кбит/сек
Каналы : 6 каналов
Channel layout : L R C LFE Ls Rs
Частота : 48,0 КГц
Частота кадров : 31,250 кадров/сек (1536 SPF)
Метод сжатия : С потерями
Размер потока : 126 Мбайт (6%)
Язык : Russian
Default : Да
Forced : Нет
Аудио #2
Идентификатор : 3
Формат : E-AC-3 JOC
Формат/Информация : Enhanced AC-3 with Joint Object Coding
Коммерческое название : Dolby Digital Plus with Dolby Atmos
Идентификатор кодека : A_EAC3
Продолжительность : 39 м. 10 с.
Вид битрейта : Постоянный
Битрейт : 768 Кбит/сек
Каналы : 6 каналов
Channel layout : L R C LFE Ls Rs
Частота : 48,0 КГц
Частота кадров : 31,250 кадров/сек (1536 SPF)
Метод сжатия : С потерями
Размер потока : 215 Мбайт (11%)
Язык : English
Default : Нет
Forced : Нет
Complexity index : 16
Number of dynamic objects : 15
Bed channel count : 1 канал
Bed channel configuration : LFE
Текст #1
Идентификатор : 4
Формат : UTF-8
Идентификатор кодека : S_TEXT/UTF8
Идентификатор кодека/Информация : UTF-8 Plain Text
Продолжительность : 34 м. 24 с.
Битрейт : 3 бит/сек
Частота кадров : 0,012 кадр/сек
Count of elements : 24
Размер потока : 1,00 Кбайт (0%)
Заголовок : Forced
Язык : Russian
Default : Нет
Forced : Нет
Текст #2
Идентификатор : 5
Формат : UTF-8
Идентификатор кодека : S_TEXT/UTF8
Идентификатор кодека/Информация : UTF-8 Plain Text
Продолжительность : 33 м. 7 с.
Битрейт : 59 бит/сек
Частота кадров : 0,223 кадр/сек
Count of elements : 444
Размер потока : 14,5 Кбайт (0%)
Язык : English
Default : Нет
Forced : Нет
Текст #3
Идентификатор : 6
Формат : UTF-8
Идентификатор кодека : S_TEXT/UTF8
Идентификатор кодека/Информация : UTF-8 Plain Text
Продолжительность : 35 м. 25 с.
Битрейт : 63 бит/сек
Частота кадров : 0,248 кадр/сек
Count of elements : 527
Размер потока : 16,4 Кбайт (0%)
Заголовок : SDH
Язык : English
Default : Нет
Forced : Нет

Скриншоты

AdGuard VPN - бесплатный, надёжный и быстрый VPN
[korsars.pro].t69112.torrent 
Торрент: Зарегистрирован [ 2022-09-22 17:00 ] · A8F044EC3A697F9EF31233D7EDCC52C1178CE856

Скачать .torrent

Размер .torrent файла 17 KB

Статус: проверено
.torrent скачан: 19 раз
Размер: 5,91 GB
Правила
AdGuard VPN - бесплатный, надёжный и быстрый VPN
Похожие темы

Вы не зарегистрированы на нашем сайте. Вам доступна для скачивания только часть контента. Чтобы увидеть весь контент сайта, пожалуйста, зарегистрируйтесь.

Дешевый и быстрый Сидбокс
У Вас отключен VIP статус, поэтому Вам показывается реклама на сайте. Вы можете поддержать наш ресурс и приобрести VIP статус, тем самым отключив показ рекламы на сайте, а ещё VIP пользователи получают 15 инвайтов, которыми можно поделиться с друзьями или знакомыми.
Дешевый и быстрый Сидбокс
[Профиль] [ЛС]
Показать сообщения:    
Ответить на тему

Текущее время: 18-Апр 17:24

Часовой пояс: UTC + 4



Вы не можете начинать темы
Вы не можете отвечать на сообщения
Вы не можете редактировать свои сообщения
Вы не можете удалять свои сообщения
Вы не можете голосовать в опросах
Вы не можете прикреплять файлы к сообщениям
Вы можете скачивать файлы
Анализ сайта korsars.pro Яндекс.Метрика

Материал для зрителей старше 18 летВсе материалы на сайте получены из свободных источников в сети Интернет и представлены исключительно для личного (некоммерческого) использования лицами старше 18 лет.