Мисс Марвел / Ms. Marvel [S01] (2022) WEB-DL-HEVC 2160p | 4K | SDR | by legsik69 | D, P

Ответить на тему
Статистика раздачи [Обновить пиров]
Размер:  45,39 GB   |    Зарегистрирован:  1 год 8 месяцев   |    .torrent скачан:  10 раз
Раздают:  4  [  0 KB/s  ]   Качают:  8  [  0 KB/s  ]   Подробная статистика пиров
   
 
Автор Сообщение

legsik69 ®

Оффлайн

Медали


Пол: Мужской

Стаж: 1 год 9 месяцев

Наличие запрета:

Сообщений: 19

Откуда: Украина

Отдача: 10 Mb/s

Загрузка: 10 Mb/s



AdGuard VPN - бесплатный, надёжный и быстрый VPN

Создавать темы 15-Авг-2022 12:51

[Цитировать]

Мисс Марвел / Ms. Marvel-Год выпуска: 2022
Страна:
США
Жанр: Фантастика, фэнтези, боевик, драма, комедия, криминал, детектив, приключения, семейный, комикс, супергерой
Продолжительность: 6 x ~ 00:46:58
Перевод: Дублированный, профессиональный многоголосый
Режиссёры: Мира Менон, Шармин Обаид, Адиль Эль Арби, Билал Фалла
В ролях: Иман Веллани, Алисия Райнер, Мэтт Линтц, Ясмин Флетчер, Анджали Бимани, Риш Шах, Лорель Марсден, Фархан Акхтар, Зенобия Шрофф, Нимра Буча-Рейтинг:
-О фильме:
Американка пакистанского происхождения и мусульманка из Джерси Камала Хан обрела суперспособности после воздействия Тумана Терригена. Выпущенный правителем сверхлюдей Чёрным Громом он пробудил в людях древние гены. В результате Камала получила способность растягивать своё тело и менять внешний облик.-Качество: WEB-DL (2160p)
Формат: MKV (MPEG-H HEVC)
Видео: 19 Мбит/с, 3840х2160, 24 кадр/с
Звук:
Внимание! Релиз БЕЗ рекламы!
Аудио #1: E-AC3, 48 kHz, 6 ch, 768 kbps | Оригинал | ENG |
Аудио #2: AC3, 48 kHz, 2 ch, 192 kbps | Flarrow Films | RUS |
Аудио #3: AC3, 48 kHz, 2 ch, 384 kbps | LostFilm | RUS |
Аудио #4: AC3, 48 kHz, 2 ch, 192 kbps | TVShows | RUS |
Аудио #5: AC3, 48 kHz, 6 ch, 640 kbps | NewStudio | RUS |
Аудио #6: AC3, 48 kHz, 6 ch, 448 kbps | HDrezka Studio | RUS |
Аудио #7: AC3, 48 kHz, 2 ch, 384 kbps | Red Head Sound Jr. | RUS |
Аудио #8: AC3, 48 kHz, 6 ch, 384 kbps | NewComers | RUS |
Аудио #9: AC3, 48 kHz, 2 ch, 256 kbps | LineFilm | RUS | - 18+
Аудио #10: AC3, 48 kHz, 2 ch, 320 kbps | RuDub | RUS |
Аудио #11: AC3, 48 kHz, 6 ch, 512 kbps | Цікава Ідея | UKR |
Субтитры: Русские (Forced, 2 х Full), английские (Full, SDH)-

MediaInfo

Формат : Matroska
Версия формата : Version 4
Размер файла : 7,81 Гбайт
Продолжительность : 47 м. 2 с.
Общий поток : 23,8 Мбит/сек
Название фильма : 01. Мисс Марвел | by legsik69
Дата кодирования : UTC 2022-06-16 15:56:55
Программа кодирования : mkvmerge v65.0.0 ('Too Much') 64-bit
Библиотека кодирования : libebml v1.4.2 + libmatroska v1.6.4
Обложка : Yes
Attachments : Cover.jpg
Видео
Идентификатор : 1
Формат : HEVC
Формат/Информация : High Efficiency Video Coding
Профиль формата : Main@L5@High
Идентификатор кодека : V_MPEGH/ISO/HEVC
Продолжительность : 47 м. 1 с.
Битрейт : 19,5 Мбит/сек
Ширина : 3 840 пикселей
Высота : 2 160 пикселей
Соотношение сторон : 16:9
Режим частоты кадров : Постоянный
Частота кадров : 24,000 кадра/сек
Цветовое пространство : YUV
Субдискретизация насыщенности : 4:2:0
Битовая глубина : 8 бит
Бит/(Пиксели*Кадры) : 0.098
Размер потока : 6,40 Гбайт (82%)
Библиотека кодирования : x265 3.5:[Linux][GCC 9.4.0][64 bit] 8bit+10bit+12bit
Настройки программы : cpuid=1111039 / frame-threads=1 / numa-pools=16 / wpp / no-pmode / no-pme / no-psnr / no-ssim / log-level=2 / input-csp=1 / input-res=3840x2160 / interlace=0 / total-frames=0 / level-idc=50 / high-tier=1 / uhd-bd=0 / ref=2 / no-allow-non-conformance / repeat-headers / annexb / no-aud / no-hrd / info / hash=0 / no-temporal-layers / no-open-gop / min-keyint=48 / keyint=48 / gop-lookahead=0 / bframes=4 / b-adapt=0 / b-pyramid / bframe-bias=0 / rc-lookahead=48 / lookahead-slices=8 / scenecut=0 / hist-scenecut=0 / radl=0 / no-splice / no-intra-refresh / ctu=32 / min-cu-size=8 / no-rect / no-amp / max-tu-size=16 / tu-inter-depth=2 / tu-intra-depth=2 / limit-tu=0 / rdoq-level=1 / dynamic-rd=0.00 / no-ssim-rd / signhide / no-tskip / nr-intra=0 / nr-inter=0 / no-constrained-intra / no-strong-intra-smoothing / max-merge=3 / limit-refs=1 / no-limit-modes / me=1 / subme=2 / merange=44 / temporal-mvp / no-frame-dup / no-hme / weightp / no-weightb / no-analyze-src-pics / deblock=0:0 / no-sao / no-sao-non-deblock / rd=4 / selective-sao=0 / early-skip / rskip / no-fast-intra / no-tskip-fast / no-cu-lossless / b-intra / no-splitrd-skip / rdpenalty=1 / psy-rd=1.60 / psy-rdoq=5.00 / no-rd-refine / no-lossless / cbqpoffs=0 / crqpoffs=0 / rc=abr / bitrate=20000 / qcomp=0.75 / qpstep=4 / stats-write=0 / stats-read=0 / vbv-maxrate=24000 / vbv-bufsize=40000 / vbv-init=0.9 / ipratio=1.40 / pbratio=1.30 / aq-mode=3 / aq-strength=1.00 / no-cutree / zone-count=0 / no-strict-cbr / qg-size=32 / no-rc-grain / qpmax=69 / qpmin=0 / no-const-vbv / sar=1 / overscan=0 / videoformat=5 / range=0 / colorprim=1 / transfer=1 / colormatrix=1 / chromaloc=0 / display-window=0 / cll=0,0 / min-luma=0 / max-luma=255 / log2-max-poc-lsb=8 / vui-timing-info / vui-hrd-info / slices=1 / no-opt-qp-pps / no-opt-ref-list-length-pps / no-multi-pass-opt-rps / scenecut-bias=0.00 / hist-threshold=0.01 / no-opt-cu-delta-qp / no-aq-motion / no-hdr10 / no-hdr10-opt / no-dhdr10-opt / no-idr-recovery-sei / analysis-reuse-level=0 / analysis-save-reuse-level=0 / analysis-load-reuse-level=0 / scale-factor=0 / refine-intra=0 / refine-inter=0 / refine-mv=1 / refine-ctu-distortion=0 / no-limit-sao / ctu-info=0 / no-lowpass-dct / refine-analysis-type=0 / copy-pic=1 / max-ausize-factor=1.0 / no-dynamic-refine / no-single-sei / no-hevc-aq / no-svt / no-field / qp-adaptation-range=1.00 / no-scenecut-aware-qpconformance-window-offsets / right=0 / bottom=0
Язык : English
Default : Да
Forced : Да
Цветовой диапазон : Limited
Основные цвета : BT.709
Характеристики трансфера : BT.709
Коэффициенты матрицы : BT.709
Аудио #1
Идентификатор : 2
Формат : E-AC-3 JOC
Формат/Информация : Enhanced AC-3 with Joint Object Coding
Коммерческое название : Dolby Digital Plus with Dolby Atmos
Идентификатор кодека : A_EAC3
Продолжительность : 47 м. 1 с.
Вид битрейта : Постоянный
Битрейт : 768 Кбит/сек
Каналы : 6 каналов
Channel layout : L R C LFE Ls Rs
Частота : 48,0 КГц
Частота кадров : 31,250 кадров/сек (1536 SPF)
Метод сжатия : С потерями
Размер потока : 258 Мбайт (3%)
Заголовок : Оригинал
Язык : English
Service kind : Complete Main
Default : Нет
Forced : Нет
Complexity index : 16
Number of dynamic objects : 15
Bed channel count : 1 канал
Bed channel configuration : LFE
Аудио #2
Идентификатор : 3
Формат : AC-3
Формат/Информация : Audio Coding 3
Коммерческое название : Dolby Digital
Идентификатор кодека : A_AC3
Продолжительность : 46 м. 57 с.
Вид битрейта : Постоянный
Битрейт : 384 Кбит/сек
Каналы : 2 канала
Channel layout : L R
Частота : 48,0 КГц
Частота кадров : 31,250 кадров/сек (1536 SPF)
Метод сжатия : С потерями
Задержка видео : 3 с. 0 мс.
Размер потока : 129 Мбайт (2%)
Заголовок : MVO | LostFilm
Язык : Russian
Service kind : Complete Main
Default : Да
Forced : Да
Аудио #3
Идентификатор : 4
Формат : AC-3
Формат/Информация : Audio Coding 3
Коммерческое название : Dolby Digital
Идентификатор кодека : A_AC3
Продолжительность : 46 м. 58 с.
Вид битрейта : Постоянный
Битрейт : 192 Кбит/сек
Каналы : 2 канала
Channel layout : L R
Частота : 48,0 КГц
Частота кадров : 31,250 кадров/сек (1536 SPF)
Метод сжатия : С потерями
Задержка видео : 3 с. 0 мс.
Размер потока : 64,5 Мбайт (1%)
Заголовок : MVO | TVShows
Язык : Russian
Service kind : Complete Main
Default : Нет
Forced : Нет
Аудио #4
Идентификатор : 5
Формат : AC-3
Формат/Информация : Audio Coding 3
Коммерческое название : Dolby Digital
Идентификатор кодека : A_AC3
Продолжительность : 46 м. 58 с.
Вид битрейта : Постоянный
Битрейт : 640 Кбит/сек
Каналы : 6 каналов
Channel layout : L R C LFE Ls Rs
Частота : 48,0 КГц
Частота кадров : 31,250 кадров/сек (1536 SPF)
Метод сжатия : С потерями
Задержка видео : 3 с. 0 мс.
Размер потока : 215 Мбайт (3%)
Заголовок : MVO | NewStudio
Язык : Russian
Service kind : Complete Main
Default : Нет
Forced : Нет
Аудио #5
Идентификатор : 6
Формат : AC-3
Формат/Информация : Audio Coding 3
Коммерческое название : Dolby Digital
Идентификатор кодека : A_AC3
Продолжительность : 46 м. 58 с.
Вид битрейта : Постоянный
Битрейт : 448 Кбит/сек
Каналы : 6 каналов
Channel layout : L R C LFE Ls Rs
Частота : 48,0 КГц
Частота кадров : 31,250 кадров/сек (1536 SPF)
Метод сжатия : С потерями
Задержка видео : 3 с. 0 мс.
Размер потока : 151 Мбайт (2%)
Заголовок : MVO | HDrezka Studio
Язык : Russian
Service kind : Complete Main
Default : Нет
Forced : Нет
Аудио #6
Идентификатор : 7
Формат : AC-3
Формат/Информация : Audio Coding 3
Коммерческое название : Dolby Digital
Идентификатор кодека : A_AC3
Продолжительность : 46 м. 58 с.
Вид битрейта : Постоянный
Битрейт : 384 Кбит/сек
Каналы : 2 канала
Channel layout : L R
Частота : 48,0 КГц
Частота кадров : 31,250 кадров/сек (1536 SPF)
Метод сжатия : С потерями
Задержка видео : 3 с. 0 мс.
Размер потока : 129 Мбайт (2%)
Заголовок : MVO | Red Head Sound Jr.
Язык : Russian
Service kind : Complete Main
Default : Нет
Forced : Нет
Аудио #7
Идентификатор : 8
Формат : AC-3
Формат/Информация : Audio Coding 3
Коммерческое название : Dolby Digital
Идентификатор кодека : A_AC3
Продолжительность : 46 м. 59 с.
Вид битрейта : Постоянный
Битрейт : 384 Кбит/сек
Каналы : 6 каналов
Channel layout : L R C LFE Ls Rs
Частота : 48,0 КГц
Частота кадров : 31,250 кадров/сек (1536 SPF)
Метод сжатия : С потерями
Задержка видео : 3 с. 0 мс.
Размер потока : 129 Мбайт (2%)
Заголовок : MVO | NewComers
Язык : Russian
Service kind : Complete Main
Default : Нет
Forced : Нет
Аудио #8
Идентификатор : 9
Формат : AC-3
Формат/Информация : Audio Coding 3
Коммерческое название : Dolby Digital
Идентификатор кодека : A_AC3
Продолжительность : 46 м. 58 с.
Вид битрейта : Постоянный
Битрейт : 256 Кбит/сек
Каналы : 2 канала
Channel layout : L R
Частота : 48,0 КГц
Частота кадров : 31,250 кадров/сек (1536 SPF)
Метод сжатия : С потерями
Задержка видео : 3 с. 0 мс.
Размер потока : 86,0 Мбайт (1%)
Заголовок : MVO | LineFilm
Язык : Russian
Service kind : Complete Main
Default : Нет
Forced : Нет
Аудио #9
Идентификатор : 10
Формат : AC-3
Формат/Информация : Audio Coding 3
Коммерческое название : Dolby Digital
Идентификатор кодека : A_AC3
Продолжительность : 46 м. 58 с.
Вид битрейта : Постоянный
Битрейт : 320 Кбит/сек
Каналы : 2 канала
Channel layout : L R
Частота : 48,0 КГц
Частота кадров : 31,250 кадров/сек (1536 SPF)
Метод сжатия : С потерями
Задержка видео : 3 с. 0 мс.
Размер потока : 108 Мбайт (1%)
Заголовок : MVO | RuDub
Язык : Russian
Service kind : Complete Main
Default : Нет
Forced : Нет
Аудио #10
Идентификатор : 11
Формат : AC-3
Формат/Информация : Audio Coding 3
Коммерческое название : Dolby Digital
Идентификатор кодека : A_AC3
Продолжительность : 46 м. 58 с.
Вид битрейта : Постоянный
Битрейт : 512 Кбит/сек
Каналы : 6 каналов
Channel layout : L R C LFE Ls Rs
Частота : 48,0 КГц
Частота кадров : 31,250 кадров/сек (1536 SPF)
Метод сжатия : С потерями
Задержка видео : 3 с. 0 мс.
Размер потока : 172 Мбайт (2%)
Заголовок : MVO | Цікава Ідея
Язык : Ukrainian
Service kind : Complete Main
Default : Нет
Forced : Нет
Текст #1
Идентификатор : 12
Формат : UTF-8
Идентификатор кодека : S_TEXT/UTF8
Идентификатор кодека/Информация : UTF-8 Plain Text
Продолжительность : 41 м. 7 с.
Битрейт : 6 бит/сек
Count of elements : 58
Размер потока : 1,92 Кбайт (0%)
Заголовок : Forced
Язык : Russian
Default : Да
Forced : Да
Текст #2
Идентификатор : 13
Формат : UTF-8
Идентификатор кодека : S_TEXT/UTF8
Идентификатор кодека/Информация : UTF-8 Plain Text
Продолжительность : 44 м. 31 с.
Битрейт : 116 бит/сек
Count of elements : 591
Размер потока : 38,1 Кбайт (0%)
Заголовок : Full | Где тексты, Лебовски?
Язык : Russian
Default : Нет
Forced : Нет
Текст #3
Идентификатор : 14
Формат : UTF-8
Идентификатор кодека : S_TEXT/UTF8
Идентификатор кодека/Информация : UTF-8 Plain Text
Продолжительность : 44 м. 7 с.
Битрейт : 110 бит/сек
Count of elements : 591
Размер потока : 35,7 Кбайт (0%)
Заголовок : Full | homo SUBiens
Язык : Russian
Default : Нет
Forced : Нет
Текст #4
Идентификатор : 15
Формат : UTF-8
Идентификатор кодека : S_TEXT/UTF8
Идентификатор кодека/Информация : UTF-8 Plain Text
Продолжительность : 43 м. 43 с.
Битрейт : 76 бит/сек
Count of elements : 582
Размер потока : 24,5 Кбайт (0%)
Заголовок : Full
Язык : English
Default : Нет
Forced : Нет
Текст #5
Идентификатор : 16
Формат : UTF-8
Идентификатор кодека : S_TEXT/UTF8
Идентификатор кодека/Информация : UTF-8 Plain Text
Продолжительность : 44 м. 0 с.
Битрейт : 83 бит/сек
Count of elements : 664
Размер потока : 26,9 Кбайт (0%)
Заголовок : SDH
Язык : English
Default : Нет
Forced : Нет
-- На новые релизы Приятного просмотра.-
AdGuard VPN - бесплатный, надёжный и быстрый VPN
[korsars.pro].t66172.torrent 
Торрент: Зарегистрирован [ 2022-08-15 12:51 ] · 88DB08AD43E691E140C52128CB05D304C5A47A46

Скачать .torrent

Размер .torrent файла 114 KB

Статус: проверено
.torrent скачан: 10 раз
Размер: 45,39 GB
Правила
AdGuard VPN - бесплатный, надёжный и быстрый VPN
Похожие темы

Вы не зарегистрированы на нашем сайте. Вам доступна для скачивания только часть контента. Чтобы увидеть весь контент сайта, пожалуйста, зарегистрируйтесь.

Дешевый и быстрый Сидбокс
У Вас отключен VIP статус, поэтому Вам показывается реклама на сайте. Вы можете поддержать наш ресурс и приобрести VIP статус, тем самым отключив показ рекламы на сайте, а ещё VIP пользователи получают 15 инвайтов, которыми можно поделиться с друзьями или знакомыми.
Дешевый и быстрый Сидбокс
[Профиль] [ЛС]
Показать сообщения:    
Ответить на тему

Текущее время: 18-Апр 18:19

Часовой пояс: UTC + 4



Вы не можете начинать темы
Вы не можете отвечать на сообщения
Вы не можете редактировать свои сообщения
Вы не можете удалять свои сообщения
Вы не можете голосовать в опросах
Вы не можете прикреплять файлы к сообщениям
Вы можете скачивать файлы
Анализ сайта korsars.pro Яндекс.Метрика

Материал для зрителей старше 18 летВсе материалы на сайте получены из свободных источников в сети Интернет и представлены исключительно для личного (некоммерческого) использования лицами старше 18 лет.