Сокол и Зимний солдат / The Falcon and the Winter Soldier [S01] (2021) WEB-DL 720p | Flarrow Films

Ответить на тему
Статистика раздачи [Обновить пиров]
Размер:  9,64 GB   |    Зарегистрирован:  2 года 3 месяца   |    .torrent скачан:  4 раза
Раздают:  66  [  0 KB/s  ]   Качают:  44  [  0 KB/s  ]   Подробная статистика пиров
   
 
Автор Сообщение

4udaki ®

Оффлайн

Медали


Пол: Мужской

Стаж: 9 лет 5 месяцев

Наличие запрета:

Сообщений: 58875

Откуда: korsars.pro

Отдача: 100 Mb/s

Загрузка: 100 Mb/s



AdGuard VPN - бесплатный, надёжный и быстрый VPN

Создавать темы 09-Янв-2022 17:00

[Цитировать]

[img]http://c.Radikal больше не существует. Перезалейте изображение на другой хостинг!/c14/2103/da/c407f2efc092.png[/img]
Информация о фильме
Название: Сокол и Зимний Солдат
Оригинальное название: The Falcon and the Winter Soldier
Год выхода: 2021
Жанр: фантастика, боевик, драма, приключения
Режиссер: Кари Скогланд
В ролях: Себастиан Стэн, Энтони Маки, Эмили ВанКэмп, Даниэль Брюль, Эрин Келлиман, Эдеперо Одуйе, Десмонд Чайм, Уайатт Рассел, Джон Геттье, Мики Исикава
О фильме:
Сэм Уилсон примерит костюм нового Капитана Америка и попытается справиться с миссией, возложенной на него Стивом Роджерсом. Баки, в свою очередь, готов вновь стать частью общества и поближе познакомиться со всем, что предлагает современный мир.



Страна: США
Продолжительность: ~00:50:00 серия
Перевод: Дублированный (любительский) | Flarrow Films
Роли дублировали: Ахилл Намазов, Денис Кузьмичёв, Даниил Эльдаров, Дмитрий Лунёв, Алёна Соколова, Семён Евсиков, Алена Козлова, Алина Лихачева, Рута Новикова, Дмитрий Бугаков, Алексей Ядренников, Алексей Щегорский, Данила Глухов, Виталий Кашеваров
Файл
Качество: WEB-DL 720p Сэмпл
Формат: MKV
Видео: MPEG-4 AVC, 1280x720 (16:9), 24.000 кадра/сек, ~3536 Кбит/сек
Аудио 1: Дубляж (Flarrow Films): AC3, 48 kHz, 2 (L R) ch, 320 kbps
Аудио 2: Оригинал: E-AC3 JOC, 48 kHz, 3/2 (L R C LFE Ls Rs) ch, 768 kbps
Субтитры: Русские (Forced, Full), английские (Full)
Релиз от: TwoKDot

MediaInfo

General
Unique ID : 203406358702875827710539322263836039728 (0x9906A3C410A1B2ED47F373913CA01A30)
Complete name : D:ВидеоСериалыThe Falcon and the Winter Soldier_720pThe Falcon and the Winter Soldier E01 Новый мировой порядок.mkv
Format : Matroska
Format version : Version 4
File size : 1.53 GiB
Duration : 47 min 16 s
Overall bit rate mode : Variable
Overall bit rate : 4 625 kb/s
Encoded date : UTC 2022-01-07 17:03:33
Writing application : mkvmerge v64.0.0 ('Willows') 64-bit
Writing library : libebml v1.4.2 + libmatroska v1.6.4
Video
ID : 1
Format : AVC
Format/Info : Advanced Video Codec
Format profile : High@L3.1
Format settings : CABAC / 4 Ref Frames
Format settings, CABAC : Yes
Format settings, Reference : 4 frames
Codec ID : V_MPEG4/ISO/AVC
Duration : 47 min 15 s
Bit rate mode : Variable
Bit rate : 3 536 kb/s
Maximum bit rate : 6 375 kb/s
Width : 1 280 pixels
Height : 720 pixels
Display aspect ratio : 16:9
Frame rate mode : Constant
Frame rate : 24.000 FPS
Color space : YUV
Chroma subsampling : 4:2:0
Bit depth : 8 bits
Scan type : Progressive
Bits/(Pixel*Frame) : 0.160
Stream size : 1.17 GiB (76%)
Title : Новый мировой порядок
Language : English
Default : Yes
Forced : No
Color range : Limited
Color primaries : BT.709
Transfer characteristics : BT.709
Matrix coefficients : BT.709
Audio #1
ID : 2
Format : AC-3
Format/Info : Audio Coding 3
Commercial name : Dolby Digital
Codec ID : A_AC3
Duration : 47 min 16 s
Bit rate mode : Constant
Bit rate : 320 kb/s
Channel(s) : 2 channels
Channel layout : L R
Sampling rate : 48.0 kHz
Frame rate : 31.250 FPS (1536 SPF)
Compression mode : Lossy
Stream size : 108 MiB (7%)
Title : Дубляж (Flarrow Films)
Language : Russian
Service kind : Complete Main
Default : Yes
Forced : No
Audio #2
ID : 3
Format : E-AC-3 JOC
Format/Info : Enhanced AC-3 with Joint Object Coding
Commercial name : Dolby Digital Plus with Dolby Atmos
Codec ID : A_EAC3
Duration : 47 min 15 s
Bit rate mode : Constant
Bit rate : 768 kb/s
Channel(s) : 6 channels
Channel layout : L R C LFE Ls Rs
Sampling rate : 48.0 kHz
Frame rate : 31.250 FPS (1536 SPF)
Compression mode : Lossy
Stream size : 260 MiB (17%)
Title : Оригинал
Language : English
Service kind : Complete Main
Default : No
Forced : No
Complexity index : 16
Number of dynamic objects : 15
Bed channel count : 1 channel
Bed channel configuration : LFE
Text #1
ID : 4
Format : UTF-8
Codec ID : S_TEXT/UTF8
Codec ID/Info : UTF-8 Plain Text
Duration : 38 min 47 s
Bit rate : 1 b/s
Count of elements : 10
Stream size : 509 Bytes (0%)
Title : Форсированные
Language : Russian
Default : Yes
Forced : No
Text #2
ID : 5
Format : UTF-8
Codec ID : S_TEXT/UTF8
Codec ID/Info : UTF-8 Plain Text
Duration : 40 min 44 s
Bit rate : 106 b/s
Count of elements : 559
Stream size : 31.6 KiB (0%)
Title : Полные
Language : Russian
Default : No
Forced : No
Text #3
ID : 6
Format : UTF-8
Codec ID : S_TEXT/UTF8
Codec ID/Info : UTF-8 Plain Text
Duration : 42 min 35 s
Bit rate : 66 b/s
Count of elements : 674
Stream size : 20.9 KiB (0%)
Title : Полные
Language : English
Default : No
Forced : No

Список серий

E01 Новый мировой порядок
E02 Человек в звёздно-полосатом
E03 Торговец силой
E04 Весь мир смотрит
E05 Правда
E06 Один мир, один народ

Скриншоты

AdGuard VPN - бесплатный, надёжный и быстрый VPN
[korsars.pro].t50359.torrent 
Торрент: Зарегистрирован [ 2022-01-09 17:00 ] · E4766E6FB2F504A5C32BA0BBE07E366B7F49986B

Скачать .torrent

Размер .torrent файла 25 KB

Статус: проверено
.torrent скачан: 4 раз
Размер: 9,64 GB
Правила
Jordan7(09-Июн-22)
AdGuard VPN - бесплатный, надёжный и быстрый VPN
Похожие темы

Вы не зарегистрированы на нашем сайте. Вам доступна для скачивания только часть контента. Чтобы увидеть весь контент сайта, пожалуйста, зарегистрируйтесь.

Дешевый и быстрый Сидбокс
У Вас отключен VIP статус, поэтому Вам показывается реклама на сайте. Вы можете поддержать наш ресурс и приобрести VIP статус, тем самым отключив показ рекламы на сайте, а ещё VIP пользователи получают 15 инвайтов, которыми можно поделиться с друзьями или знакомыми.
Дешевый и быстрый Сидбокс
[Профиль] [ЛС]
Показать сообщения:    
Ответить на тему

Текущее время: 23-Апр 17:46

Часовой пояс: UTC + 4



Вы не можете начинать темы
Вы не можете отвечать на сообщения
Вы не можете редактировать свои сообщения
Вы не можете удалять свои сообщения
Вы не можете голосовать в опросах
Вы не можете прикреплять файлы к сообщениям
Вы можете скачивать файлы
Анализ сайта korsars.pro Яндекс.Метрика

Материал для зрителей старше 18 летВсе материалы на сайте получены из свободных источников в сети Интернет и представлены исключительно для личного (некоммерческого) использования лицами старше 18 лет.