Соколиный глаз / Hawkeye [S01] (2021) WEB-DL 720p | Flarrow Films

Ответить на тему
Статистика раздачи [Обновить пиров]
Размер:  7,79 GB   |    Зарегистрирован:  2 года 4 месяца   |    .torrent скачан:  10 раз
Раздают:  290  [  0 KB/s  ]   Качают:  217  [  0 KB/s  ]   Подробная статистика пиров
   
 
Автор Сообщение

ExPlayer ®

Оффлайн

Медали


Пол: Мужской

Стаж: 9 лет 6 месяцев

Наличие запрета:

Сообщений: 60316

Откуда: korsars.pro

Отдача: 100 Mb/s

Загрузка: 100 Mb/s



AdGuard VPN - бесплатный, надёжный и быстрый VPN

Создавать темы 07-Янв-2022 21:00

[Цитировать]

[img]http://d.Radikal больше не существует. Перезалейте изображение на другой хостинг!/d17/2112/5e/266178aec8dd.png[/img]
Информация о фильме
Название: Соколиный Глаз
Оригинальное название: Hawkeye
Год выхода: 2021
Жанр: фантастика, боевик, драма, криминал, детектив, приключения
Режиссер: Берт, Кэти Эллвуд, Риз Томас
В ролях: Джереми Реннер, Хейли Стайнфелд, Флоренс Пью, Вера Фармига, Зан Маккларнон, Брайан Д’Арси Джеймс, Тони Далтон, Линда Карделлини, Фра Фи, Алаква Кокс
О фильме:
Соколиный Глаз готов уйти на покой, но сперва он должен найти себе подходящую замену, поэтому начинает тренировать нового Соколиного Глаза — молодую Кейт Бишоп. Бартон должен научить Кейт, как быть супергероем без суперспособностей и спасать людей, полагаясь исключительно на свои навыки, смекалку и меткость.



Страна: США
Продолжительность: ~00:50:00 серия
Перевод: Дублированный (любительский) | Flarrow Films
Роли дублировали: Александр Хошабаев, Сергей Чихачёв, Татьяна Борзова, Алия Насырова, Егор Васильев, Ислам Ганджаев, Анна Мосолова, Константин Погодаев, Алёна Соколова, Ахилл Намазов, Андрей Маслов, Алина Лихачева, Лена Лунина, Семён Евсиков, Рута Няттиева, Рустам Шайхиев, Анастасия Скачкова
Файл
Качество: WEB-DL 720p Сэмпл
Формат: MKV
Видео: MPEG-4 AVC, 1280x720 (16:9), 24.000 кадра/сек, ~3 Мбит/сек
Аудио 1: Дубляж (Flarrow Films): AC3, 48 kHz, 2 (L R) ch, 320 kbps
Аудио 2: Оригинал: E-AC3 JOC, 48 kHz, 3/2 (L R C LFE Ls Rs) ch, 768 kbps
Субтитры: Русские (Forced, Full), английские (Full)
Релиз от: TwoKDot

MediaInfo

General
Unique ID : 186793617770515907819843882565928345995 (0x8C872466769B76DC890735F03719E18B)
Complete name : D:ВидеоСериалыHawkeye_720pHawkeye E01 Никогда не встречай своих героев.mkv
Format : Matroska
Format version : Version 4
File size : 1.36 GiB
Duration : 47 min 21 s
Overall bit rate mode : Variable
Overall bit rate : 4 122 kb/s
Encoded date : UTC 2022-01-03 09:03:47
Writing application : mkvmerge v64.0.0 ('Willows') 64-bit
Writing library : libebml v1.4.2 + libmatroska v1.6.4
Video
ID : 1
Format : AVC
Format/Info : Advanced Video Codec
Format profile : High@L3.1
Format settings : CABAC / 4 Ref Frames
Format settings, CABAC : Yes
Format settings, Reference : 4 frames
Codec ID : V_MPEG4/ISO/AVC
Duration : 47 min 21 s
Bit rate mode : Variable
Bit rate : 3 032 kb/s
Maximum bit rate : 6 375 kb/s
Width : 1 280 pixels
Height : 720 pixels
Display aspect ratio : 16:9
Frame rate mode : Constant
Frame rate : 24.000 FPS
Color space : YUV
Chroma subsampling : 4:2:0
Bit depth : 8 bits
Scan type : Progressive
Bits/(Pixel*Frame) : 0.137
Stream size : 1.00 GiB (74%)
Title : Никогда не встречай своих героев
Language : English
Default : Yes
Forced : No
Color range : Limited
Color primaries : BT.709
Transfer characteristics : BT.709
Matrix coefficients : BT.709
Audio #1
ID : 2
Format : AC-3
Format/Info : Audio Coding 3
Commercial name : Dolby Digital
Codec ID : A_AC3
Duration : 47 min 21 s
Bit rate mode : Constant
Bit rate : 320 kb/s
Channel(s) : 2 channels
Channel layout : L R
Sampling rate : 48.0 kHz
Frame rate : 31.250 FPS (1536 SPF)
Compression mode : Lossy
Stream size : 108 MiB (8%)
Title : Дубляж (Flarrow Films)
Language : Russian
Service kind : Complete Main
Default : Yes
Forced : No
Audio #2
ID : 3
Format : E-AC-3 JOC
Format/Info : Enhanced AC-3 with Joint Object Coding
Commercial name : Dolby Digital Plus with Dolby Atmos
Codec ID : A_EAC3
Duration : 47 min 21 s
Bit rate mode : Constant
Bit rate : 768 kb/s
Channel(s) : 6 channels
Channel layout : L R C LFE Ls Rs
Sampling rate : 48.0 kHz
Frame rate : 31.250 FPS (1536 SPF)
Compression mode : Lossy
Stream size : 260 MiB (19%)
Title : Оригинал
Language : English
Service kind : Complete Main
Default : No
Forced : No
Complexity index : 16
Number of dynamic objects : 15
Bed channel count : 1 channel
Bed channel configuration : LFE
Text #1
ID : 4
Format : UTF-8
Codec ID : S_TEXT/UTF8
Codec ID/Info : UTF-8 Plain Text
Duration : 33 min 21 s
Bit rate : 10 b/s
Count of elements : 43
Stream size : 2.52 KiB (0%)
Title : Форсированные
Language : Russian
Default : Yes
Forced : No
Text #2
ID : 5
Format : UTF-8
Codec ID : S_TEXT/UTF8
Codec ID/Info : UTF-8 Plain Text
Duration : 43 min 58 s
Bit rate : 76 b/s
Count of elements : 496
Stream size : 24.6 KiB (0%)
Title : Полные
Language : Russian
Default : No
Forced : No
Text #3
ID : 6
Format : UTF-8
Codec ID : S_TEXT/UTF8
Codec ID/Info : UTF-8 Plain Text
Duration : 43 min 58 s
Bit rate : 47 b/s
Count of elements : 492
Stream size : 15.4 KiB (0%)
Title : Полные
Language : English
Default : No
Forced : No

Список серий

E01 Никогда не встречай своих героев
E02 Прятки
E03 Эхо
E04 Напарники, я прав?
E05 Ронин
E06 Так это Рождество

Скриншоты

AdGuard VPN - бесплатный, надёжный и быстрый VPN
[korsars.pro].t50253.torrent 
Торрент: Зарегистрирован [ 2022-01-07 21:00 ] · C99890D21BD20117C46B82BF576A75D872897CD0

Скачать .torrent

Размер .torrent файла 21 KB

Статус: проверено
.torrent скачан: 10 раз
Размер: 7,79 GB
Правила
Jordan7(09-Июн-22)

AdGuard VPN - бесплатный, надёжный и быстрый VPN
Похожие темы

Вы не зарегистрированы на нашем сайте. Вам доступна для скачивания только часть контента. Чтобы увидеть весь контент сайта, пожалуйста, зарегистрируйтесь.

Дешевый и быстрый Сидбокс
У Вас отключен VIP статус, поэтому Вам показывается реклама на сайте. Вы можете поддержать наш ресурс и приобрести VIP статус, тем самым отключив показ рекламы на сайте, а ещё VIP пользователи получают 15 инвайтов, которыми можно поделиться с друзьями или знакомыми.
Дешевый и быстрый Сидбокс
AdGuard - Интернет без рекламы и слежки в любом браузере
[Профиль] [ЛС]
Показать сообщения:    
Ответить на тему

Текущее время: 28-Май 06:26

Часовой пояс: UTC + 4



Вы не можете начинать темы
Вы не можете отвечать на сообщения
Вы не можете редактировать свои сообщения
Вы не можете удалять свои сообщения
Вы не можете голосовать в опросах
Вы не можете прикреплять файлы к сообщениям
Вы можете скачивать файлы
Анализ сайта korsars.pro Яндекс.Метрика

Материал для зрителей старше 18 летВсе материалы на сайте получены из свободных источников в сети Интернет и представлены исключительно для личного (некоммерческого) использования лицами старше 18 лет.