Соколиный Глаз / Hawkeye [S01] (2021) WEB-DL 1080p | VHSник

Ответить на тему
Статистика раздачи [Обновить пиров]
Размер:  13,22 GB   |    Зарегистрирован:  2 года 5 месяцев   |    .torrent скачан:  2 раза
Раздают:  366  [  0 KB/s  ]   Качают:  390  [  0 KB/s  ]   Подробная статистика пиров
   
 
Автор Сообщение

ExPlayer ®

Оффлайн

Медали


Пол: Мужской

Стаж: 9 лет 6 месяцев

Наличие запрета:

Сообщений: 60281

Откуда: korsars.pro

Отдача: 100 Mb/s

Загрузка: 100 Mb/s



AdGuard VPN - бесплатный, надёжный и быстрый VPN

Создавать темы 23-Дек-2021 09:00

[Цитировать]

[img=right]http://d.Radikal больше не существует. Перезалейте изображение на другой хостинг!/d32/2112/62/4800e157dc63.png[/img]
Информация о фильме
Название: Соколиный Глаз
Оригинальное название: Hawkeye
Год выхода: 2021
Жанр: фантастика, боевик, драма, криминал, детектив, приключения
Режиссер: Берт, Кэти Эллвуд, Риз Томас
Сценарий: Тэннер Бин, Катрина Мэтьюсон, Джонатан Игла
В ролях: Джереми Реннер, Хейли Стайнфелд, Тони Далтон, Вера Фармига, Линда Карделлини, Алаква Кокс, Алекс Паунович, Фра Фи, Ава Руссо, Петр Адамчик и др.
О сериале:
Соколиный Глаз готов уйти на покой, но сперва он должен найти себе подходящую замену, поэтому начинает тренировать нового Соколиного Глаза — молодую Кейт Бишоп. Бартон должен научить Кейт, как быть супергероем без суперспособностей и спасать людей, полагаясь исключительно на свои навыки, смекалку и меткость.

Страна: [img]https://b.Radikal больше не существует. Перезалейте изображение на другой хостинг!/b20/2107/35/6320784d57e8.gif[/img]США, [img]http://b.Radikal больше не существует. Перезалейте изображение на другой хостинг!/b26/2111/d1/d1f97be8f5f5.gif[/img]Япония
Студия: Marvel Studios, Disney+
Продолжительность: 00:41:47
Перевод: Любительский (одноголосый закадровый) Борис VHSник Страхов
Файл
Качество: WEB-DLRip
Формат: MKV
Видео: 1920x1080, 24.000 fps, MPEG-4 AVC, 5 770 kb/s
Аудио 1: [img]http://c.Radikal больше не существует. Перезалейте изображение на другой хостинг!/c08/2109/4f/e3fcf4ec0390.gif[/img]Russian: AC-3, 48.0 kHz, 2 channels, 320 kb/s
Аудио 2: [img]https://b.Radikal больше не существует. Перезалейте изображение на другой хостинг!/b20/2107/35/6320784d57e8.gif[/img]English: E-AC-3, 48.0 kHz, 6 channels, 768 kb/s
Субтитры: [img]https://b.Radikal больше не существует. Перезалейте изображение на другой хостинг!/b20/2107/35/6320784d57e8.gif[/img]English
[thumb]https://d.Radikal больше не существует. Перезалейте изображение на другой хостинг!/d13/2111/11/417a2a22feb4.png[/thumb][thumb]https://a.Radikal больше не существует. Перезалейте изображение на другой хостинг!/a18/2111/d2/37156b238477.png[/thumb][thumb]https://a.Radikal больше не существует. Перезалейте изображение на другой хостинг!/a14/2111/e7/c179312c7b18.png[/thumb][thumb]https://c.Radikal больше не существует. Перезалейте изображение на другой хостинг!/c14/2111/66/6bd057965556.png[/thumb]

Список серий

01. Никогда не встречай своих героев / Never Meet Your Heroes
02. Прятки / Hide and Seek
03. Эхо / Echoes
04. Напарники, я прав? / Partners, Am I Right?
05. Ронин / Ronin
06. Итак, рождество / So This Is Christmas

Подробные технические данные

General
Unique ID : 285847962162144316186111481337389435751 (0xD70C50A2FD2D366B685A0FD5D656CB67)
Complete name : D:2. MovieСоколиный глаз - Сезон 1 - VHSникСоколиный глаз - Сезон 1, серия 1 - VHSник.mkv
Format : Matroska
Format version : Version 4 / Version 2
File size : 2.27 GiB
Duration : 47 min 21 s
Overall bit rate mode : Variable
Overall bit rate : 6 860 kb/s
Movie name : EVO
Encoded date : UTC 2021-11-24 13:22:36
Writing application : mkvmerge v57.0.0 ('Till The End') 64-bit
Writing library : libebml v1.4.2 + libmatroska v1.6.4
Video
ID : 1
Format : AVC
Format/Info : Advanced Video Codec
Format profile : High@L4
Format settings, CABAC : Yes
Format settings, ReFrames : 4 frames
Codec ID : V_MPEG4/ISO/AVC
Duration : 47 min 21 s
Bit rate mode : Variable
Bit rate : 5 770 kb/s
Maximum bit rate : 12.7 Mb/s
Width : 1 920 pixels
Height : 1 080 pixels
Display aspect ratio : 16:9
Frame rate mode : Constant
Frame rate : 24.000 FPS
Color space : YUV
Chroma subsampling : 4:2:0
Bit depth : 8 bits
Scan type : Progressive
Bits/(Pixel*Frame) : 0.116
Stream size : 1.91 GiB (84%)
Default : Yes
Forced : No
Color range : Limited
Color primaries : BT.709
Transfer characteristics : BT.709
Matrix coefficients : BT.709
Audio #1
ID : 2
Format : AC-3
Format/Info : Audio Coding 3
Mode extension : CM (complete main)
Format settings, Endianness : Big
Codec ID : A_AC3
Duration : 47 min 21 s
Bit rate mode : Constant
Bit rate : 320 kb/s
Channel(s) : 2 channels
Channel positions : Front: L R
Sampling rate : 48.0 kHz
Frame rate : 31.250 FPS (1536 spf)
Bit depth : 16 bits
Compression mode : Lossy
Stream size : 108 MiB (5%)
Title : ВХСник
Language : Russian
Default : Yes
Forced : No
Audio #2
ID : 3
Format : E-AC-3
Format/Info : Enhanced Audio Coding 3
Format settings, Endianness : Big
Codec ID : A_EAC3
Duration : 47 min 21 s
Bit rate mode : Constant
Bit rate : 768 kb/s
Channel(s) : 6 channels
Channel positions : Front: L C R, Side: L R, LFE
Sampling rate : 48.0 kHz
Frame rate : 187.500 FPS (256 spf)
Compression mode : Lossy
Stream size : 260 MiB (11%)
Language : English
Default : No
Forced : No
Text
ID : 4
Format : UTF-8
Codec ID : S_TEXT/UTF8
Codec ID/Info : UTF-8 Plain Text
Duration : 43 min 58 s
Bit rate : 47 b/s
Count of elements : 492
Stream size : 15.4 KiB (0%)
Language : English
Default : No
Forced : No
***Реклама отсутствует.
***Озвучка с большой оглядкой на мэтров одноголосых переводов эпохи VHS.
Релиз от: [img]https://d.Radikal больше не существует. Перезалейте изображение на другой хостинг!/d39/2107/e8/90de718be5e6.jpg[/img]
AdGuard VPN - бесплатный, надёжный и быстрый VPN
[korsars.pro].t49410.torrent 
Торрент: Зарегистрирован [ 2021-12-23 09:00 ] · 9F31A0465AD6B82514C522C3D78254A0A2E45C68

Скачать .torrent

Размер .torrent файла 34 KB

Статус: проверено
.torrent скачан: 2 раз
Размер: 13,22 GB
Правила

AdGuard VPN - бесплатный, надёжный и быстрый VPN
Похожие темы

Вы не зарегистрированы на нашем сайте. Вам доступна для скачивания только часть контента. Чтобы увидеть весь контент сайта, пожалуйста, зарегистрируйтесь.

Дешевый и быстрый Сидбокс
У Вас отключен VIP статус, поэтому Вам показывается реклама на сайте. Вы можете поддержать наш ресурс и приобрести VIP статус, тем самым отключив показ рекламы на сайте, а ещё VIP пользователи получают 15 инвайтов, которыми можно поделиться с друзьями или знакомыми.
Дешевый и быстрый Сидбокс
AdGuard - Интернет без рекламы и слежки в любом браузере
[Профиль] [ЛС]
Показать сообщения:    
Ответить на тему

Текущее время: 28-Май 05:53

Часовой пояс: UTC + 4



Вы не можете начинать темы
Вы не можете отвечать на сообщения
Вы не можете редактировать свои сообщения
Вы не можете удалять свои сообщения
Вы не можете голосовать в опросах
Вы не можете прикреплять файлы к сообщениям
Вы можете скачивать файлы
Анализ сайта korsars.pro Яндекс.Метрика

Материал для зрителей старше 18 летВсе материалы на сайте получены из свободных источников в сети Интернет и представлены исключительно для личного (некоммерческого) использования лицами старше 18 лет.