Видеть / See [S02] (2021) WEB-DL-HEVC 2160p | 4K | Dolby Vision TV | D, P | Пифагор, Jaskier

Ответить на тему
Статистика раздачи [Обновить пиров]
Размер:  81,5 GB   |    Зарегистрирован:  2 года 7 месяцев   |    .torrent скачан:  3 раза
Раздают:  48  [  0 KB/s  ]   Качают:  40  [  0 KB/s  ]   Подробная статистика пиров
   
 
Автор Сообщение

ExPlayer ®

Оффлайн

Медали


Пол: Мужской

Стаж: 9 лет 6 месяцев

Наличие запрета:

Сообщений: 60223

Откуда: korsars.pro

Отдача: 100 Mb/s

Загрузка: 100 Mb/s



AdGuard VPN - бесплатный, надёжный и быстрый VPN

Создавать темы 18-Окт-2021 13:00

[Цитировать]

Информация о фильме
Название: Видеть
Оригинальное название: See
Год выхода: 2021
Жанр: Фантастика, боевик, драма
Режиссер: Френсис Лоуренс, Андерс Энгстрем, Стивен Серджик, Фред Туа, Салли Ричардсон-Уитфилд
В ролях: Джейсон Момоа, Элфри Вудард, Сильвия Хукс, Хера Хильмар, Кристиан Камарго, Арчи Мадекве, Неста Купер, Ядира Гевара-Прип, Моджиан Ариа, Люк Родерик, Танту Кардинал, Мэрили Токингтон, Лорен Глэйзер, Франц Драмех, Тимоти Уэббер, Джессика Харпер, Джошуа Генри
О фильме:
В далёком будущем человеческая раса полностью лишилась зрения. Чтобы выжить, людям пришлось найти новый способ сосуществовать, строить и добывать пищу. Всё меняется, когда в семье бесстрашного воина Бабы Восса рождаются зрячие близнецы. Их появление рискует нарушить хрупкий баланс нового мира и ввергнуть успокоившуюся цивилизацию в хаос.

Страна: США
Студия: Apple TV+, Chernin Entertainment, Endeavor Content
Продолжительность: 8 x ~ 00:57:00
Перевод: Дублированный, многоголосый профессиональный
Файл
Формат: MP4
Кодек: H.265
Качество: WebDL 2160p
Видео: HEVC, Dolby Vision Profile 5, ~24,5 Mбит/с, 3840x1824, 23.976 кадр/с
Звук:
Аудио #1 Русский: EAC3+Atmos, 48.0 kHz, 5.1 ch, 768 Kbps [Дубляж]
Аудио #2 Русский: AC3, 48.0 kHz, 5.1 ch, 384 Kbps [MVO, Jaskier]*
Аудио #5 English: EAC3+Atmos, 48.0 kHz, 5.1 ch, 768 Kbps
Субтитры: русские(forced, полные), украинские, английские
*Примечание: Удаление рекламы из дорожки Jaskier - @MadAndron
Дополнительная информация:
Релиз в MP4 в 5-м профиле Dolby Vision для воспроизведении на устройствах с поддержкой DV. Протестировано на тв-боксах Nvidia Shield 2019, Zidoo Z1000 Pro, Amazon FireTV Stick 4k, TiVo Stream 4K и Ugoos AM6+ и многих других, а также на встроенных плеерах телевизоров LG, Sony, Phillips и Panasonic.
На устройствах без поддержки Dolby Vision проигрываться не будет(или будет, но с искаженными цветами), так как в видеоряде отсутствует HDR слой

Mediainfo

Общее
Полное имя : D:Download TorrentsSee.S02.2160p.ATVP.WEB-DL.DDP5.1.Atmos.DoVi.by.DVTSee.S02E01.2160p.ATVP.WEB-DL.DDP5.1.Atmos.DoVi.by.DVT.mp4
Формат : MPEG-4
Профиль формата : Base Media / Version 2
Идентификатор кодека : mp42 (isom/mp42/dby1)
Размер файла : 11,3 Гбайт
Продолжительность : 1 ч. 2 м.
Режим общего битрейта : Переменный
Общий поток : 25,9 Мбит/сек
Дата кодирования : UTC 2021-08-29 09:35:59
Дата пометки : UTC 2021-08-29 09:35:59
Видео
Идентификатор : 1
Формат : HEVC
Формат/Информация : High Efficiency Video Coding
Профиль формата : Main 10@L5@High
HDR format : Dolby Vision, Version 1.0, dvhe.05.06, BL+RPU
Идентификатор кодека : dvhe
Идентификатор кодека/Информация : High Efficiency Video Coding with Dolby Vision
Продолжительность : 1 ч. 2 м.
Битрейт : 23,9 Мбит/сек
Ширина : 3 840 пикселей
Высота : 1 824 пикселя
Высота оригинала : 1 820 пикселей
Соотношение сторон : 2,105
Соотношение сторон в оригинале : 2,110
Режим частоты кадров : Постоянный
Частота кадров : 23,976 (24000/1001) кадра/сек
Цветовое пространство : YUV
Субдискретизация насыщенности : 4:2:0
Битовая глубина : 10 бит
Бит/(Пиксели*Кадры) : 0.143
Размер потока : 10,5 Гбайт (93%)
Заголовок : See S02E01 (2021) - Release by Dolby Vision Torrents
Default : Да
Alternate group : 1
Дата кодирования : UTC 2021-08-27 04:57:55
Дата пометки : UTC 2021-08-29 09:37:20
Codec configuration box : hvcC+dvcC
Аудио #1
Идентификатор : 2
Формат : E-AC-3 JOC
Формат/Информация : Enhanced AC-3 with Joint Object Coding
Коммерческое название : Dolby Digital Plus with Dolby Atmos
Идентификатор кодека : ec-3
Продолжительность : 1 ч. 2 м.
Вид битрейта : Постоянный
Битрейт : 768 Кбит/сек
Максимальный битрейт : 811 Кбит/сек
Каналы : 6 каналов
Channel layout : L R C LFE Ls Rs
Частота : 48,0 КГц
Частота кадров : 31,250 кадров/сек (1536 SPF)
Метод сжатия : С потерями
Размер потока : 344 Мбайт (3%)
Заголовок : Dub EAC3 Atmos 5.1 ch
Язык : Russian
Service kind : Complete Main
Default : Да
Alternate group : 1
Дата пометки : UTC 2021-08-29 09:37:20
Complexity index : Not present / 16
Number of dynamic objects : 15
Bed channel count : 1 канал
Bed channel configuration : LFE
Аудио #2
Идентификатор : 3
Формат : AC-3
Формат/Информация : Audio Coding 3
Коммерческое название : Dolby Digital
Идентификатор кодека : ac-3
Продолжительность : 1 ч. 2 м.
Вид битрейта : Постоянный
Битрейт : 384 Кбит/сек
Максимальный битрейт : 406 Кбит/сек
Каналы : 6 каналов
Channel layout : L R C LFE Ls Rs
Частота : 48,0 КГц
Частота кадров : 31,250 кадров/сек (1536 SPF)
Метод сжатия : С потерями
Размер потока : 172 Мбайт (1%)
Заголовок : Jaskier 5.1 ch
Язык : Russian
Service kind : Complete Main
Дата кодирования : UTC 2021-08-29 09:37:15
Дата пометки : UTC 2021-08-29 09:37:20
Аудио #3
Идентификатор : 4
Формат : E-AC-3 JOC
Формат/Информация : Enhanced AC-3 with Joint Object Coding
Коммерческое название : Dolby Digital Plus with Dolby Atmos
Идентификатор кодека : ec-3
Продолжительность : 1 ч. 2 м.
Вид битрейта : Постоянный
Битрейт : 768 Кбит/сек
Максимальный битрейт : 811 Кбит/сек
Каналы : 6 каналов
Channel layout : L R C LFE Ls Rs
Частота : 48,0 КГц
Частота кадров : 31,250 кадров/сек (1536 SPF)
Метод сжатия : С потерями
Размер потока : 344 Мбайт (3%)
Заголовок : Original EAC3 Atmos 5.1 ch
Язык : English
Service kind : Complete Main
Default : Нет
Alternate group : 1
Дата пометки : UTC 2021-08-29 09:37:20
Complexity index : Not present / 16
Number of dynamic objects : 15
Bed channel count : 1 канал
Bed channel configuration : LFE
Текст #1
Идентификатор : 5
Формат : Timed Text
Идентификатор кодека : tx3g
Продолжительность : 57 м. 27 с.
Вид битрейта : Переменный
Битрейт : 0 бит/сек
Размер потока : 168 байт (0%)
Заголовок : Forced
Язык : Russian
Forced : Да
Дата кодирования : UTC 2021-08-29 09:37:20
Дата пометки : UTC 2021-08-29 09:37:20
Текст #2
Идентификатор : 6
Формат : Timed Text
Идентификатор кодека : tx3g
Продолжительность : 1 ч. 2 м.
Вид битрейта : Переменный
Битрейт : 84 бит/сек
Размер потока : 38,3 Кбайт (0%)
Заголовок : Full
Язык : Russian
Forced : Нет
Дата кодирования : UTC 2021-08-29 09:37:20
Дата пометки : UTC 2021-08-29 09:37:20
Текст #3
Идентификатор : 7
Формат : Timed Text
Идентификатор кодека : tx3g
Продолжительность : 1 ч. 1 м.
Вид битрейта : Переменный
Битрейт : 102 бит/сек
Размер потока : 45,8 Кбайт (0%)
Заголовок : Full SDH
Язык : Russian
Forced : Нет
Дата кодирования : UTC 2021-08-29 09:37:20
Дата пометки : UTC 2021-08-29 09:37:20
Текст #4
Идентификатор : 8
Формат : Timed Text
Идентификатор кодека : tx3g
Продолжительность : 1 ч. 2 м.
Вид битрейта : Переменный
Битрейт : 82 бит/сек
Размер потока : 37,7 Кбайт (0%)
Заголовок : Full
Язык : Ukrainian
Forced : Нет
Дата кодирования : UTC 2021-08-29 09:37:20
Дата пометки : UTC 2021-08-29 09:37:20
Текст #5
Идентификатор : 9
Формат : Timed Text
Идентификатор кодека : tx3g
Продолжительность : 1 ч. 2 м.
Вид битрейта : Переменный
Битрейт : 97 бит/сек
Размер потока : 44,6 Кбайт (0%)
Заголовок : Full SDH
Язык : Ukrainian
Forced : Нет
Дата кодирования : UTC 2021-08-29 09:37:20
Дата пометки : UTC 2021-08-29 09:37:20
Текст #6
Идентификатор : 10
Формат : Timed Text
Идентификатор кодека : tx3g
Продолжительность : 1 ч. 1 м.
Вид битрейта : Переменный
Битрейт : 58 бит/сек
Размер потока : 25,9 Кбайт (0%)
Заголовок : Full
Язык : English
Forced : Нет
Дата кодирования : UTC 2021-08-29 09:37:20
Дата пометки : UTC 2021-08-29 09:37:20
Текст #7
Идентификатор : 11
Формат : Timed Text
Идентификатор кодека : tx3g
Продолжительность : 1 ч. 1 м.
Вид битрейта : Переменный
Битрейт : 68 бит/сек
Размер потока : 30,4 Кбайт (0%)
Заголовок : Full SDH
Язык : English
Forced : Нет
Дата кодирования : UTC 2021-08-29 09:37:20
Дата пометки : UTC 2021-08-29 09:37:20
--Релиз от: Dolby Vision Torrents
AdGuard VPN - бесплатный, надёжный и быстрый VPN
[korsars.pro].t47547.torrent 
Торрент: Зарегистрирован [ 2021-10-18 13:00 ] · 7CBF47E1360D28A5E6F054E30EC4A36B2ADA544C

Скачать .torrent

Размер .torrent файла 409 KB

Статус: проверено
.torrent скачан: 3 раз
Размер: 81,5 GB
Правила

AdGuard VPN - бесплатный, надёжный и быстрый VPN
Похожие темы

Вы не зарегистрированы на нашем сайте. Вам доступна для скачивания только часть контента. Чтобы увидеть весь контент сайта, пожалуйста, зарегистрируйтесь.

Дешевый и быстрый Сидбокс
У Вас отключен VIP статус, поэтому Вам показывается реклама на сайте. Вы можете поддержать наш ресурс и приобрести VIP статус, тем самым отключив показ рекламы на сайте, а ещё VIP пользователи получают 15 инвайтов, которыми можно поделиться с друзьями или знакомыми.
Дешевый и быстрый Сидбокс
AdGuard - Интернет без рекламы и слежки в любом браузере
[Профиль] [ЛС]
Показать сообщения:    
Ответить на тему

Текущее время: 26-Май 22:54

Часовой пояс: UTC + 4



Вы не можете начинать темы
Вы не можете отвечать на сообщения
Вы не можете редактировать свои сообщения
Вы не можете удалять свои сообщения
Вы не можете голосовать в опросах
Вы не можете прикреплять файлы к сообщениям
Вы можете скачивать файлы
Анализ сайта korsars.pro Яндекс.Метрика

Материал для зрителей старше 18 летВсе материалы на сайте получены из свободных источников в сети Интернет и представлены исключительно для личного (некоммерческого) использования лицами старше 18 лет.