Корона / The Crown [S04] (2020) WEB-DL 1080p | Невафильм

Ответить на тему
Статистика раздачи [Обновить пиров]
Размер:  19,44 GB   |    Зарегистрирован:  1 год 4 месяца   |    .torrent скачан:  6 раз
Раздают:  82  [  0 KB/s  ]   Качают:  13  [  0 KB/s  ]   Подробная статистика пиров
   
 
Автор Сообщение

4udaki ®

Оффлайн

Медали


Пол: Мужской

Стаж: 8 лет

Наличие запрета:

Сообщений: 31286

Откуда: korsars.pro

Отдача: 2 Mb/s

Загрузка: 20 Mb/s



Скачать Adguard бесплатно

Создавать темы 24-Июл-2021 09:00

[Цитировать]

Информация о фильме
Название: Корона
Оригинальное название: The Crown
Год выхода: 2020
Жанр: драма, история, биография
Режиссер: Бенжамин Карон, Стивен Долдри, Филип Мартин
В ролях: Оливия Колман, Тобайас Мензис, Хелена Бонэм Картер, Мэрион Бэйли, Чарльз Дэнс, Дерек Джекоби, Джеральдина Чаплин, Бен Дэниелс, Джиллиан Андерсон
О фильме:
Эта драма повествует о политических битвах и любовных интригах во время правления Королевы Елизаветы II и событиях, повлиявших на ход истории во второй половине XX века.
Четвёртый сезон охватывает период времени между 1977 и 1990 годами. В этом сезоне представлена леди Диана Спенсер, и его действие разворачивается во время премьерства Маргарет Тэтчер, а также представлены принц Уильям и принц Гарри. Изображённые события включают в себя свадьбу принца Чарльза и леди Дианы Спенсер, их поездку по Австралии и Новой Зеландии в 1983 году, Фолклендскую войну, проникновение Майкла Фэйгана в Букингемский дворец, похороны лорда Маунтбеттена, появление принцессы Дианы на церемонии детей-чемпионов Барнардо и её полёт на Конкорде в 1989 году.

Страна: Великобритания, США
Продолжительность: ~00:58:00
Перевод: Профессиональный (дублированный) Невафильм по заказу NETFLIX
Файл
Формат: MKV
Качество: WEB-DL 1080p | Netflix
Видео: 1920x1080 at 25.000 fps, MPEG-4 AVC, ~3000-5620 kbps avg
Аудио#1: Russian: 48 kHz, E-AC3, 3/2 (L,C,R,l,r) + LFE ch, ~640.00 kbps avg
Аудио#2: English: 48 kHz, E-AC3, 3/2 (L,C,R,l,r) + LFE ch, ~640.00 kbps avg
Субтитры: Русские (Forced, Full), английские (SDH), немецкие, испанские, французcкие, итальянские, португальские
Реклама отсутствует
Релиз: Wilmots

Список серий

01. Золотой жезл
02. Испытание Балморала
03. Сказка
04. Любимчики
05. Фейган
06. Терра Нуллиус
07. Принцип наследования
08. 48:1
09. Лавина
10. Война

MediaInfo

General
Unique ID : 43454003596839138217242843426127579026 (0x20B0EFC9CE5ADDBE91B76D83A3638792)
Complete name : The.Crown.S04.1080p.NF.WEB-DL.DDP5.1.x264-EniaHDThe.Crown.S04E01.1080p.NF.WEB-DL.DDP5.1.x264-EniaHD.mkv
Format : Matroska
Format version : Version 4
File size : 2.33 GiB
Duration : 54 min 12 s
Overall bit rate mode : Variable
Overall bit rate : 6 152 kb/s
Movie name : The Crown S04E01 - EniaHD
Encoded date : UTC 2020-11-15 08:13:31
Writing application : mkvmerge v51.0.0 ('I Wish') 64-bit
Writing library : libebml v1.4.0 + libmatroska v1.6.2
Video
ID : 1
Format : AVC
Format/Info : Advanced Video Codec
Format profile : Main@L4
Format settings : CABAC / 3 Ref Frames
Format settings, CABAC : Yes
Format settings, Reference fra : 3 frames
Codec ID : V_MPEG4/ISO/AVC
Duration : 54 min 12 s
Bit rate mode : Variable
Bit rate : 5 110 kb/s
Maximum bit rate : 7 665 kb/s
Width : 1 920 pixels
Height : 1 080 pixels
Display aspect ratio : 16:9
Frame rate mode : Constant
Frame rate : 25.000 FPS
Color space : YUV
Chroma subsampling : 4:2:0
Bit depth : 8 bits
Scan type : Progressive
Bits/(Pixel*Frame) : 0.099
Stream size : 1.84 GiB (79%)
Writing library : x264 core 148 r2722 1b0121b
Encoding settings : cabac=1 / ref=3 / deblock=1:0:0 / analyse=0x1:0x111 / me=umh / subme=10 / psy=1 / psy_rd=1.00:0.00 / mixed_ref=1 / me_range=24 / chroma_me=1 / trellis=2 / 8x8dct=0 / cqm=0 / deadzone=21,11 / fast_pskip=1 / chroma_qp_offset=-2 / threads=6 / lookahead_threads=1 / sliced_threads=0 / nr=0 / decimate=1 / interlaced=0 / bluray_compat=0 / stitchable=1 / constrained_intra=0 / bframes=2 / b_pyramid=0 / b_adapt=2 / b_bias=0 / direct=3 / weightb=1 / open_gop=0 / weightp=2 / keyint=250 / keyint_min=25 / scenecut=0 / intra_refresh=0 / rc_lookahead=50 / rc=2pass / mbtree=1 / bitrate=5110 / ratetol=1.0 / qcomp=0.50 / qpmin=6 / qpmax=51 / qpstep=4 / cplxblur=20.0 / qblur=0.5 / vbv_maxrate=7665 / vbv_bufsize=10220 / nal_hrd=vbr / filler=0 / ip_ratio=1.40 / aq=1:1.00
Default : Yes
Forced : No
Audio #1
ID : 2
Format : E-AC-3
Format/Info : Enhanced AC-3
Commercial name : Dolby Digital Plus
Codec ID : A_EAC3
Duration : 54 min 12 s
Bit rate mode : Constant
Bit rate : 640 kb/s
Channel(s) : 6 channels
Channel layout : L R C LFE Ls Rs
Sampling rate : 48.0 kHz
Frame rate : 31.250 FPS (1536 SPF)
Compression mode : Lossy
Stream size : 248 MiB (10%)
Language : Russian
Service kind : Complete Main
Default : Yes
Forced : No
Audio #2
ID : 3
Format : E-AC-3
Format/Info : Enhanced AC-3
Commercial name : Dolby Digital Plus
Codec ID : A_EAC3
Duration : 54 min 12 s
Bit rate mode : Constant
Bit rate : 640 kb/s
Channel(s) : 6 channels
Channel layout : L R C LFE Ls Rs
Sampling rate : 48.0 kHz
Frame rate : 31.250 FPS (1536 SPF)
Compression mode : Lossy
Stream size : 248 MiB (10%)
Language : English
Service kind : Complete Main
Default : No
Forced : No
Text #1
ID : 4
Format : UTF-8
Codec ID : S_TEXT/UTF8
Codec ID/Info : UTF-8 Plain Text
Duration : 52 min 18 s
Bit rate : 2 b/s
Count of elements : 17
Stream size : 856 Bytes (0%)
Title : Forced
Language : Russian
Default : Yes
Forced : No
Text #2
ID : 5
Format : UTF-8
Codec ID : S_TEXT/UTF8
Codec ID/Info : UTF-8 Plain Text
Duration : 52 min 18 s
Bit rate : 85 b/s
Count of elements : 600
Stream size : 32.8 KiB (0%)
Language : Russian
Default : No
Forced : No
Text #3
ID : 6
Format : UTF-8
Codec ID : S_TEXT/UTF8
Codec ID/Info : UTF-8 Plain Text
Duration : 50 min 30 s
Bit rate : 66 b/s
Count of elements : 678
Stream size : 24.5 KiB (0%)
Title : SDH
Language : English
Default : No
Forced : No
Text #4
ID : 7
Format : UTF-8
Codec ID : S_TEXT/UTF8
Codec ID/Info : UTF-8 Plain Text
Duration : 52 min 18 s
Bit rate : 56 b/s
Count of elements : 568
Stream size : 21.5 KiB (0%)
Language : German
Default : No
Forced : No
Text #5
ID : 8
Format : UTF-8
Codec ID : S_TEXT/UTF8
Codec ID/Info : UTF-8 Plain Text
Duration : 52 min 18 s
Bit rate : 52 b/s
Count of elements : 581
Stream size : 20.2 KiB (0%)
Language : Spanish
Default : No
Forced : No
Text #6
ID : 9
Format : UTF-8
Codec ID : S_TEXT/UTF8
Codec ID/Info : UTF-8 Plain Text
Duration : 52 min 18 s
Bit rate : 54 b/s
Count of elements : 568
Stream size : 21.0 KiB (0%)
Language : French
Default : No
Forced : No
Text #7
ID : 10
Format : UTF-8
Codec ID : S_TEXT/UTF8
Codec ID/Info : UTF-8 Plain Text
Duration : 52 min 18 s
Bit rate : 53 b/s
Count of elements : 555
Stream size : 20.4 KiB (0%)
Language : Italian
Default : No
Forced : No
Text #8
ID : 11
Format : UTF-8
Codec ID : S_TEXT/UTF8
Codec ID/Info : UTF-8 Plain Text
Duration : 52 min 18 s
Bit rate : 54 b/s
Count of elements : 601
Stream size : 21.1 KiB (0%)
Title : Brazilian
Language : Portuguese
Default : No
Forced : No
-
[korsars.pro].t43325.torrent 
Торрент: Зарегистрирован [ 2021-07-24 09:00 ] · FC3E173FAD2B7E435661EC58E84CB559BC548963

Скачать .torrent

Размер .torrent файла 196 KB

Статус: проверено
.torrent скачан: 6 раз
Размер: 19,44 GB
Правила
Похожие темы

Вы не зарегистрированы на нашем сайте. Вам доступна для скачивания только часть контента. Чтобы увидеть весь контент сайта, пожалуйста, зарегистрироруйтесь.

Дешевый и быстрый Сидбокс

Ключи и пин-коды

Игры, Кредитные карты, IP-телефония, Интернет провайдеры, Мобильная связь, Спутниковое ТВ

Электронные книги

Бизнес и экономика, Дом, быт, семья, досуг, Санкт-Петербург, Компьютеры и интернет, Наука и образование, Техническая литература, Юридическая литература

Цифровые товары

iTunes & App Store, Базы данных, Дизайн, Доступ к ресурсам, Kарты продления, ключи, Фотографии, Шаблоны для сайтов

Программное обеспечение

Безопасность, Игры, PC, Интернет, Мобильная связь, Программирование, Продвижение сайтов (SEO), Утилиты
У Вас отключен VIP статус, поэтому Вам показывается реклама на сайте. Вы можете поддержать наш ресурс и приобрести VIP статус, тем самым отключив показ рекламы на сайте, а ещё VIP пользователи получают возможность

смотреть аниме онлайн в HD качестве

(не распространяется на раздел Flarrow Films), а так же получить 5 инвайтов, которыми можно поделиться с друзьями или знакомыми.
Дешевый и быстрый Сидбокс

Ключи и пин-коды

Игры, Кредитные карты, IP-телефония, Интернет провайдеры, Мобильная связь, Спутниковое ТВ

Электронные книги

Бизнес и экономика, Дом, быт, семья, досуг, Санкт-Петербург, Компьютеры и интернет, Наука и образование, Техническая литература, Юридическая литература

Цифровые товары

iTunes & App Store, Базы данных, Дизайн, Доступ к ресурсам, Kарты продления, ключи, Фотографии, Шаблоны для сайтов

Программное обеспечение

Безопасность, Игры, PC, Интернет, Мобильная связь, Программирование, Продвижение сайтов (SEO), Утилиты
[Профиль] [ЛС]
Показать сообщения:    
Ответить на тему

Текущее время: 01-Дек 10:33

Часовой пояс: UTC + 4



Вы не можете начинать темы
Вы не можете отвечать на сообщения
Вы не можете редактировать свои сообщения
Вы не можете удалять свои сообщения
Вы не можете голосовать в опросах
Вы не можете прикреплять файлы к сообщениям
Вы можете скачивать файлы
Анализ сайта korsars.pro Яндекс.Метрика