Общество справедливости: Вторая мировая война / Justice Society: World War II (2021) WEB-DL 1080 | Flarrow Films

Ответить на тему
Статистика раздачи [Обновить пиров]
Размер:  3,15 GB   |    Зарегистрирован:  7 дней   |    .torrent скачан:  10 раз
Раздают:  115  [  19 KB/s  ]   Качают:  10  [  0 KB/s  ]   Подробная статистика пиров
 
   
 
 
Автор Сообщение

flarrowfilms ®

Оффлайн

Медали
VIPДруг трекераСупер Мега Контер Квейк


Пол: Не указан

Стаж: 1 год 1 месяц

Наличие запрета:

Сообщений: 80

Отдача: 5 Mb/s

Загрузка: 5 Mb/s

Нажми


Скачать Adguard бесплатно

Создавать темы 01-Май-2021 12:01

[Цитировать]

Информация о фильме
Название: Общество справедливости: Вторая мировая война
Оригинальное название: Justice Society: World War II
Год выхода: 2021
Жанр: мультфильм, фантастика, фэнтези, боевик, приключения
Режиссер: Джефф Уоместер
В ролях: Мэтт Бомер, Стана Катик, Крис Диамантополос, Мэттью Мерсер, Элисия Ротару, Лиам Макинтайр, Омид Абтахи, Джеффри Аренд, Эшли ЛаТроп, Дэрин Де Пол
О фильме:
По сюжету, Барри Аллен ещё до формирования Лиги справедливости изучает пределы своих способностей, в результате попав в прошлое. Там он лицом к лицу встречается с представителями «старой школы» героев, которые сражаются с врагами на полях битв. С помощью Флэша они начинают противостоять наступающим силам, параллельно пытаясь понять, как можно отправить самого героя в его время.

Страна: США
Продолжительность: 01:24:16
Перевод: Профессиональный (многоголосый, закадровый) | Flarrow Films
Роли озвучивали: Антон Алёхин, Анастасия Скачкова, Ахилл Намазов, Денис Кузьмичёв, Рустам Шайхиев, Рина Чернышова, Дмитрий Савкин, Данила Глухов и Семён Евсиков
Файл
Формат: MKV
Кодек: MPEG-4 AVC
Качество: WEB-DL 1080
Видео: 1920х1080, ~ 5 036 kb/s, 23.976, 8 bits
Звук: AC-3, 320 kb/s, 2 channels, 48.0 kHz
Субтитры: русские (отключаемые)-

MediaInfo

General
Unique ID : 290332623204427473221117497521293274164 (0xDA6C077F4CBDB1A747527A1D84A0AC34)
Complete name : C:\Flarrow\Justice.Society.World.War.II.2021.1080p.Flarrow.Films.mkv
Format : Matroska
Format version : Version 4
File size : 3.15 GiB
Duration : 1 h 24 min
Overall bit rate : 5 357 kb/s
Encoded date : UTC 2021-05-01 07:09:43
Writing application : mkvmerge v32.0.0 ('Astral Progressions') 64-bit
Writing library : libebml v1.3.7 + libmatroska v1.5.0
Cover : Yes
Attachments : small_cover_land.jpg / cover.jpg / cover_land.jpg / small_cover.jpg
Video
ID : 1
Format : AVC
Format/Info : Advanced Video Codec
Format profile : High@L4
Format settings : CABAC / 2 Ref Frames
Format settings, CABAC : Yes
Format settings, Reference : 2 frames
Codec ID : V_MPEG4/ISO/AVC
Duration : 1 h 24 min
Bit rate : 5 036 kb/s
Width : 1 920 pixels
Height : 1 080 pixels
Display aspect ratio : 16:9
Frame rate mode : Constant
Frame rate : 23.976 (24000/1001) FPS
Color space : YUV
Chroma subsampling : 4:2:0
Bit depth : 8 bits
Scan type : Progressive
Bits/(Pixel*Frame) : 0.101
Stream size : 2.96 GiB (94%)
Writing library : x264 core 155 r2901 7d0ff22
Language : English
Default : Yes
Forced : No
Color range : Limited
Color primaries : BT.709
Transfer characteristics : BT.709
Matrix coefficients : BT.709
Audio
ID : 2
Format : AC-3
Format/Info : Audio Coding 3
Commercial name : Dolby Digital
Codec ID : A_AC3
Duration : 1 h 24 min
Bit rate mode : Constant
Bit rate : 320 kb/s
Channel(s) : 2 channels
Channel layout : L R
Sampling rate : 48.0 kHz
Frame rate : 31.250 FPS (1536 SPF)
Compression mode : Lossy
Stream size : 193 MiB (6%)
Language : Russian
Service kind : Complete Main
Default : Yes
Forced : No
Text
ID : 3
Format : UTF-8
Codec ID : S_TEXT/UTF8
Codec ID/Info : UTF-8 Plain Text
Duration : 1 h 21 min
Bit rate : 72 b/s
Count of elements : 933
Stream size : 43.3 KiB (0%)
Language : Russian
Default : Yes
Forced : No
--Релиз от: Flarrow Films
Примечание: Без интро Flarrow Films- -
[korsars.pro].t39253.torrent 
Торрент: Зарегистрирован [ 2021-05-01 12:01 ] · 7B67CE41F73882449B811E7D37C1440BBB363F30

Скачать .torrent

Размер .torrent файла 16 KB

Статус: проверено
.torrent скачан: 10 раз
Размер: 3,15 GB
Правила
Venom243(01-Май-21), ellolait(01-Май-21), Сериаломан(02-Май-21)
Похожие темы

Вы не зарегистрированы на нашем сайте. Вам доступна для скачивания только часть контента. Чтобы увидеть весь контент сайта, пожалуйста, зарегистрироруйтесь.

У Вас отключен VIP статус, поэтому Вам показывается реклама на сайте. Вы можете поддержать наш ресурс и приобрести VIP статус, тем самым отключив показ рекламы на сайте, а ещё VIP пользователи получают возможность

смотреть аниме онлайн в HD качестве

(не распространяется на раздел Flarrow Films), а так же получить 5 инвайтов, которыми можно поделиться с друзьями или знакомыми.
[Профиль] [ЛС]
Показать сообщения:    
Ответить на тему

Текущее время: 09-Май 08:59

Часовой пояс: UTC + 4



Вы не можете начинать темы
Вы не можете отвечать на сообщения
Вы не можете редактировать свои сообщения
Вы не можете удалять свои сообщения
Вы не можете голосовать в опросах
Вы не можете прикреплять файлы к сообщениям
Вы можете скачивать файлы
Анализ сайта korsars.pro Яндекс.Метрика