Том и Джерри: специальные короткометражные выпуски / Tom and Jerry Special Shorts [S01] (2021) WEB-DLRip 1080p | D | Локализованная версия | Flarrow Films

Ответить на тему
Статистика раздачи [Обновить пиров]
Размер:  692 MB   |    Зарегистрирован:  12 дней   |    .torrent скачан:  6 раз
Раздают:  90  [  1 KB/s  ]   Качают:  2  [  0 KB/s  ]   Подробная статистика пиров
 
   
 
 
Автор Сообщение

flarrowfilms ®

Оффлайн

Медали
VIPДруг трекераСупер Мега Контер Квейк


Пол: Не указан

Стаж: 11 месяцев 13 дней

Наличие запрета:

Сообщений: 71

Отдача: 5 Mb/s

Загрузка: 5 Mb/s

Нажми


Скачать Adguard бесплатно

Создавать темы 23-Фев-2021 18:27

[Цитировать]

Информация о фильме
Название: Том и Джерри: специальные короткометражные выпуски
Оригинальное название: Tom and Jerry Special Shorts
Год выхода: 2021
Жанр: мультфильм, комедия, семейный
Режиссер: Кенни Питтенгер, Дэвид Джеммилл
В ролях: Уильям Ханна, Кеоне Янг
О фильме:
Классический комедийный дуэт Тома и Джерри вернулся в совершенно новых короткометражках, которые демонстрируют неистовое соперничество, которое фанаты знают и любят.
Страна: США
Продолжительность: 00:04:33 (серия)
Перевод: Дублированный (профессиональный) | Flarrow Films
Роли озвучивали: Дмитрий Филимонов, Виталий Кашеваров
Файл
Формат: MKV
Кодек: MPEG-4 AVC
Качество: WEB-DLRip 1080p (локализованный видеоряд)
Видео: 1920х1080, ~ 9 720 kb/, 23.976, 8 bits
Звук: AC-3, 320 kb/s, 2 channels, 48.0 kHz
Субтитры: русские (отключаемые)-

MediaInfo

General
Unique ID : 113077716961209631399973822145592880553 (0x5511F9E298F7452229F580AEF0B4EDA9)
Complete name : C:\Flarrow\Tom.and.Jerry.Special.Shorts.S01.1080p.D.Flarrow.Films\Tom.and.Jerry.Special.Shorts.S01E01.D.Flarrow.Films.mkv
Format : Matroska
Format version : Version 4
File size : 327 MiB
Duration : 4 min 33 s
Overall bit rate : 10.0 Mb/s
Encoded date : UTC 2021-02-23 12:48:29
Writing application : mkvmerge v32.0.0 ('Astral Progressions') 64-bit
Writing library : libebml v1.3.7 + libmatroska v1.5.0
Video
ID : 1
Format : AVC
Format/Info : Advanced Video Codec
Format profile : Main@L4.1
Format settings : CABAC / 4 Ref Frames
Format settings, CABAC : Yes
Format settings, Reference : 4 frames
Codec ID : V_MPEG4/ISO/AVC
Duration : 4 min 33 s
Bit rate : 9 720 kb/s
Width : 1 920 pixels
Height : 1 080 pixels
Display aspect ratio : 16:9
Frame rate mode : Constant
Frame rate : 23.976 (24000/1001) FPS
Color space : YUV
Chroma subsampling : 4:2:0
Bit depth : 8 bits
Scan type : Progressive
Bits/(Pixel*Frame) : 0.196
Stream size : 317 MiB (97%)
Language : Russian
Default : Yes
Forced : No
Color range : Limited
Color primaries : BT.709
Transfer characteristics : BT.709
Matrix coefficients : BT.709
Audio
ID : 2
Format : AC-3
Format/Info : Audio Coding 3
Commercial name : Dolby Digital
Codec ID : A_AC3
Duration : 4 min 33 s
Bit rate mode : Constant
Bit rate : 320 kb/s
Channel(s) : 2 channels
Channel layout : L R
Sampling rate : 48.0 kHz
Frame rate : 31.250 FPS (1536 SPF)
Compression mode : Lossy
Stream size : 10.4 MiB (3%)
Language : Russian
Service kind : Complete Main
Default : Yes
Forced : No
Text
ID : 3
Format : UTF-8
Codec ID : S_TEXT/UTF8
Codec ID/Info : UTF-8 Plain Text
Duration : 4 min 14 s
Bit rate : 10 b/s
Count of elements : 12
Stream size : 329 Bytes (0%)
Language : Russian
Default : Yes
Forced : No
--Релиз от: Flarrow Films
Примечание: Без интро Flarrow Films-

[korsars.pro].t36136.torrent 
Торрент: Зарегистрирован [ 2021-02-23 18:27 ] · F397FBD026404E2BBF1A332C15D1A27BCF06347E

Скачать .torrent

Размер .torrent файла 14 KB

Статус: проверено
.torrent скачан: 6 раз
Размер: 692 MB
Правила
shura(23-Фев-21), 4udaki(23-Фев-21), Woitler(24-Фев-21), Rezident09(24-Фев-21), AlexKsandeR(25-Фев-21)
Похожие темы

Вы не зарегистрированы на нашем сайте. Вам доступна для скачивания только часть контента. Чтобы увидеть весь контент сайта, пожалуйста, зарегистрироруйтесь.

У Вас отключен VIP статус, поэтому Вам показывается реклама на сайте. Вы можете поддержать наш ресурс и приобрести VIP статус, тем самым отключив показ рекламы на сайте, а ещё VIP пользователи получают возможность

смотреть фильмы, сериалы и аниме онлайн в HD качестве

(не распространяется на раздел Flarrow Films), а так же получить 5 инвайтов, которыми можно поделиться с друзьями или знакомыми.
[Профиль] [ЛС]

Rezident09

Оффлайн

Медали


Пол: Мужской

Стаж: 11 месяцев 2 дня

Наличие запрета:

Сообщений: 3

Откуда: Северный Кавказ

Отдача: не определено

Загрузка: не определено

Нажми


Скачать Adguard бесплатно

Создавать темы 24-Фев-2021 21:15 (спустя 1 день 2 часа)

[Цитировать]

Просто низкий поклон вам, луни тюнз и том и джерри нестареющая классика. Ждём от Вас больше релизов по этим 2 огромным классическим франшизам, ведь у них многое не переведено на русский язык.
[Профиль] [ЛС]
Показать сообщения:    
Ответить на тему

Текущее время: 07-Мар 18:44

Часовой пояс: UTC + 4



Вы не можете начинать темы
Вы не можете отвечать на сообщения
Вы не можете редактировать свои сообщения
Вы не можете удалять свои сообщения
Вы не можете голосовать в опросах
Вы не можете прикреплять файлы к сообщениям
Вы можете скачивать файлы
Анализ сайта korsars.pro Яндекс.Метрика