Pixar Попкорн / Pixar Popcorn [S01] (2021) WEB-DLRip 1080p | D | Локализованная версия | Flarrow Films

Ответить на тему
Статистика раздачи [Обновить пиров]
Размер:  1,54 GB   |    Зарегистрирован:  3 месяца 2 дня   |    .torrent скачан:  14 раз
Раздают:  115  [  0 KB/s  ]   Качают:  7  [  0 KB/s  ]   Подробная статистика пиров
 
   
 
 
Автор Сообщение

flarrowfilms ®

Оффлайн

Медали
VIPДруг трекераСупер Мега Контер Квейк


Пол: Не указан

Стаж: 1 год 1 месяц

Наличие запрета:

Сообщений: 80

Отдача: 5 Mb/s

Загрузка: 5 Mb/s

Нажми


Скачать Adguard бесплатно

Создавать темы 06-Фев-2021 15:33

[Цитировать]

Информация о фильме
Название: Pixar Попкорн
Оригинальное название: Pixar Popcorn
Год выхода: 2021
Жанр: мультфильм, короткометражка, комедия, семейный
Режиссер: Роберт Х. Расс, Алан Барилларо, Кристофер Чуа
В ролях: Кигэн-Майкл Ки, Крэйг Т. Нельсон, Джордан Пил, Эмили Дэвис, Илай Фучиле, Холли Хантер, Хак Милнер, Эллен ДеДженерес
О фильме:
Короткометражная антология мультипликационной картины "Pixar Попкорн" - это целых десять проектов приключенческих фантастических историй, где в непосредственном качестве действующих персонажей выступают разношерстные супер-герои, которые в свою очередь знакомы для зрительской аудитории в бывших премьерах анимационных мультфильмов. Обладателям невероятных сверхъестественных способностей придется вновь доказывать собственное мастерство и настоящую отвагу.

Страна: США
Продолжительность: 00:01:36 (серия)
Перевод: Дублированный (профессиональный) | Flarrow Films
Роли озвучивали: Евгений Леонов и Виталий Кашеваров.
Файл
Формат: MKV
Кодек: MPEG-4 AVC
Качество: WEB-DLRip 1080p (локализованный видеоряд)
Видео: 1920х1080, ~ 9 363 kb/s, 23.976, 8 bits
Звук: AC-3, 320 kb/s, 2 channels, 48.0 kHz
Субтитры: русские (отключаемые)-

MediaInfo

General
Unique ID : 289094474229298304805409118220407655269 (0xD97D920A289E71EB90E61E4FC3FDCB65)
Complete name : C:\Flarrow\Pixar.Popcorn.S01.1080p.D.Flarrow.Films\Pixar.Popcorn.S01E01.1080p.D.Flarrow.Films.mkv
Format : Matroska
Format version : Version 4
File size : 111 MiB
Duration : 1 min 36 s
Overall bit rate : 9 683 kb/s
Encoded date : UTC 2021-01-31 08:05:08
Writing application : mkvmerge v32.0.0 ('Astral Progressions') 64-bit
Writing library : libebml v1.3.7 + libmatroska v1.5.0
Video
ID : 1
Format : AVC
Format/Info : Advanced Video Codec
Format profile : Main@L4.1
Format settings : CABAC / 4 Ref Frames
Format settings, CABAC : Yes
Format settings, Reference : 4 frames
Format settings, GOP : M=4, N=23
Codec ID : V_MPEG4/ISO/AVC
Duration : 1 min 36 s
Bit rate : 9 363 kb/s
Width : 1 920 pixels
Height : 1 080 pixels
Display aspect ratio : 16:9
Frame rate mode : Constant
Frame rate : 23.976 (24000/1001) FPS
Color space : YUV
Chroma subsampling : 4:2:0
Bit depth : 8 bits
Scan type : Progressive
Bits/(Pixel*Frame) : 0.188
Stream size : 107 MiB (97%)
Language : Russian
Default : Yes
Forced : No
Color range : Limited
Color primaries : BT.709
Transfer characteristics : BT.709
Matrix coefficients : BT.709
Audio
ID : 2
Format : AC-3
Format/Info : Audio Coding 3
Commercial name : Dolby Digital
Codec ID : A_AC3
Duration : 1 min 36 s
Bit rate mode : Constant
Bit rate : 320 kb/s
Channel(s) : 2 channels
Channel layout : L R
Sampling rate : 48.0 kHz
Frame rate : 31.250 FPS (1536 SPF)
Compression mode : Lossy
Stream size : 3.67 MiB (3%)
Language : Russian
Service kind : Complete Main
Default : Yes
Forced : No
Text
ID : 3
Format : UTF-8
Codec ID : S_TEXT/UTF8
Codec ID/Info : UTF-8 Plain Text
Duration : 47 s 540 ms
Bit rate : 10 b/s
Count of elements : 2
Stream size : 65.0 Bytes (0%)
Language : Russian
Default : Yes
Forced : No
--Релиз от: Flarrow Films
Примечание: Без интро Flarrow Films-
[korsars.pro].t35683.torrent 
Торрент: Зарегистрирован [ 2021-02-06 15:33 ] · 92B8D496454C184407DD35CECDBAE2FEFB95342D

Скачать .torrent

Размер .torrent файла 16 KB

Статус: проверено
.torrent скачан: 14 раз
Размер: 1,54 GB
Правила
Похожие темы

Вы не зарегистрированы на нашем сайте. Вам доступна для скачивания только часть контента. Чтобы увидеть весь контент сайта, пожалуйста, зарегистрироруйтесь.

У Вас отключен VIP статус, поэтому Вам показывается реклама на сайте. Вы можете поддержать наш ресурс и приобрести VIP статус, тем самым отключив показ рекламы на сайте, а ещё VIP пользователи получают возможность

смотреть аниме онлайн в HD качестве

(не распространяется на раздел Flarrow Films), а так же получить 5 инвайтов, которыми можно поделиться с друзьями или знакомыми.
[Профиль] [ЛС]
Показать сообщения:    
Ответить на тему

Текущее время: 09-Май 08:03

Часовой пояс: UTC + 4



Вы не можете начинать темы
Вы не можете отвечать на сообщения
Вы не можете редактировать свои сообщения
Вы не можете удалять свои сообщения
Вы не можете голосовать в опросах
Вы не можете прикреплять файлы к сообщениям
Вы можете скачивать файлы
Анализ сайта korsars.pro Яндекс.Метрика