Бэтмен: Год первый / Batman: Year One (2011) BDRip 1080p | Flarrow Films

Ответить на тему
Статистика раздачи [Обновить пиров]
Размер:  3,64 GB   |    Зарегистрирован:  2 месяца 15 дней   |    .torrent скачан:  1 раз
Раздают:  5  [  0 KB/s  ]   Качают:  2  [  0 KB/s  ]   Подробная статистика пиров
 
   
 
 
Автор Сообщение

flarrowfilms ®

Оффлайн

Медали
VIPДруг трекераСупер Мега Контер Квейк


Пол: Не указан

Стаж: 11 месяцев 9 дней

Наличие запрета:

Сообщений: 71

Отдача: 5 Mb/s

Загрузка: 5 Mb/s

Нажми


Скачать Adguard бесплатно

Создавать темы 18-Дек-2020 01:35

[Цитировать]

Информация о фильме
Название: Бэтмен: Год первый
Оригинальное название: Batman: Year One
Год выхода: 2011
Жанр: мультфильм, фантастика, боевик, триллер, драма, мелодрама, криминал, приключения
Режиссер: Сэм Лью, Лорен Монтгомери
В ролях: Брайан Крэнстон, Бен МакКензи, Элиза Душку, Джон Полито, Алекс Рокко, Кэти Сакхофф, Сара Бэллэнтайн, Джефф Беннетт, Стивен Блум, Роурк Критчлоу
О фильме:
История становления героя в маске летучей мыши. По молодости Брюс Уэйн на пути борьбы с преступностью набивает шишку за шишкой, параллельно выстраивая рабочие взаимоотношения с детективом Джеймсом Гордоном. Последний, кстати сказать, не просто играет привычную роль честного копа, но еще и живет личной жизнью, в которую входит и романтическая привязанность к коллеге по работе Саре Эссен. А в это время Селина Кайл начинает менять свою жизнь, начиная непосредственно с собственной личности.

Страна: США
Продолжительность: 01:04:09
Перевод: Профессиональный (многоголосый, закадровый) | Flarrow Films
Роли озвучивали: Антон Алёхин, Данила Глухов, Ахилл Намазов, Рина Чернышова, Рута Новикова, Дмитрий Кравченко, Алексей Ядренников и Семён Евсиков.
Файл
Формат: MKV
Кодек: MPEG-4 AVC
Качество: BDRip 1080p
Видео: 1920х1072, ~ 7 802 kb/s, 23.976, 8 bits
Звук: AC-3, 320 kb/s, 2 channels, 48.0 kHz
Субтитры: русские (отключаемые UTF-8)-

MediaInfo

General
Unique ID : 102511491240547955108506444834483202721 (0x4D1EFEBC68C0C9D2A3E2184C29C3EAA1)
Complete name : C:\Flarrow\Batman.Year.One.2011.1080p.Flarrow.Films.mkv
Format : Matroska
Format version : Version 4
File size : 3.64 GiB
Duration : 1 h 4 min
Overall bit rate : 8 119 kb/s
Movie name : Batman Year One.2011.BDRip.720.Iron-Sound
Encoded date : UTC 2020-12-17 20:54:09
Writing application : mkvmerge v32.0.0 ('Astral Progressions') 64-bit
Writing library : libebml v1.3.7 + libmatroska v1.5.0
Video
ID : 1
Format : AVC
Format/Info : Advanced Video Codec
Format profile : High@L4.1
Format settings : CABAC / 4 Ref Frames
Format settings, CABAC : Yes
Format settings, Reference : 4 frames
Codec ID : V_MPEG4/ISO/AVC
Duration : 1 h 4 min
Bit rate : 7 802 kb/s
Width : 1 920 pixels
Height : 1 072 pixels
Display aspect ratio : 16:9
Frame rate mode : Constant
Frame rate : 23.976 (24000/1001) FPS
Color space : YUV
Chroma subsampling : 4:2:0
Bit depth : 8 bits
Scan type : Progressive
Bits/(Pixel*Frame) : 0.158
Stream size : 3.50 GiB (96%)
Writing library : x264 core 116 r2074 2641b9e
Encoding settings : cabac=1 / ref=4 / deblock=1:1:1 / analyse=0x3:0x113 / me=umh / subme=9 / psy=1 / psy_rd=0.40:0.00 / mixed_ref=1 / me_range=32 / chroma_me=1 / trellis=1 / 8x8dct=1 / cqm=0 / deadzone=21,11 / fast_pskip=0 / chroma_qp_offset=-2 / threads=6 / sliced_threads=0 / nr=0 / decimate=1 / interlaced=0 / bluray_compat=0 / constrained_intra=0 / bframes=6 / b_pyramid=2 / b_adapt=2 / b_bias=0 / direct=3 / weightb=1 / open_gop=0 / weightp=2 / keyint=250 / keyint_min=23 / scenecut=40 / intra_refresh=0 / rc_lookahead=50 / rc=2pass / mbtree=1 / bitrate=7802 / ratetol=1.0 / qcomp=0.60 / qpmin=0 / qpmax=69 / qpstep=4 / cplxblur=20.0 / qblur=0.5 / ip_ratio=1.40 / aq=1:0.60
Language : English
Default : Yes
Forced : No
Audio
ID : 2
Format : AC-3
Format/Info : Audio Coding 3
Commercial name : Dolby Digital
Codec ID : A_AC3
Duration : 1 h 4 min
Bit rate mode : Constant
Bit rate : 320 kb/s
Channel(s) : 2 channels
Channel layout : L R
Sampling rate : 48.0 kHz
Frame rate : 31.250 FPS (1536 SPF)
Compression mode : Lossy
Stream size : 147 MiB (4%)
Language : Russian
Service kind : Complete Main
Default : Yes
Forced : No
Text
ID : 3
Format : UTF-8
Codec ID : S_TEXT/UTF8
Codec ID/Info : UTF-8 Plain Text
Duration : 1 h 0 min
Bit rate : 92 b/s
Count of elements : 647
Stream size : 41.0 KiB (0%)
Language : Russian
Default : Yes
Forced : No
--Релиз от: Flarrow Films
Примечание: Без интро Flarrow Films- -

[korsars.pro].t34373.torrent 
Торрент: Зарегистрирован [ 2020-12-18 01:35 ] · 2F604B1A784DAFC866C9ADD6F192C1F3796B07FB

Скачать .torrent

Размер .torrent файла 18 KB

Статус: проверено
.torrent скачан: 1 раз
Размер: 3,64 GB
Правила
Похожие темы

Вы не зарегистрированы на нашем сайте. Вам доступна для скачивания только часть контента. Чтобы увидеть весь контент сайта, пожалуйста, зарегистрироруйтесь.

У Вас отключен VIP статус, поэтому Вам показывается реклама на сайте. Вы можете поддержать наш ресурс и приобрести VIP статус, тем самым отключив показ рекламы на сайте, а ещё VIP пользователи получают возможность

смотреть фильмы, сериалы и аниме онлайн в HD качестве

(не распространяется на раздел Flarrow Films), а так же получить 5 инвайтов, которыми можно поделиться с друзьями или знакомыми.
[Профиль] [ЛС]
Показать сообщения:    
Ответить на тему

Текущее время: 02-Мар 23:34

Часовой пояс: UTC + 4



Вы не можете начинать темы
Вы не можете отвечать на сообщения
Вы не можете редактировать свои сообщения
Вы не можете удалять свои сообщения
Вы не можете голосовать в опросах
Вы не можете прикреплять файлы к сообщениям
Вы можете скачивать файлы
Анализ сайта korsars.pro Яндекс.Метрика