Мандалорец / The Mandalorian [S01] (2019) WEB-DL-HEVC 2160p | 4K | HDR | D | Flarrow Films

Ответить на тему
Статистика раздачи [Обновить пиров]
Размер:  33,83 GB   |    Зарегистрирован:  3 года 5 месяцев   |    .torrent скачан:  67 раз
Раздают:  4  [  0 KB/s  ]   Качают:  3  [  0 KB/s  ]   Подробная статистика пиров
   
 
Автор Сообщение

Kosty2099 ®

Оффлайн

Медали


Пол: Мужской

Стаж: 3 года 5 месяцев

Наличие запрета:

Сообщений: 12

Откуда: Москва

Отдача: 20 Mb/s

Загрузка: 20 Mb/s



AdGuard VPN - бесплатный, надёжный и быстрый VPN

Создавать темы 09-Дек-2020 08:19

[Цитировать]

Мандалорец / The Mandalorian-[img=right]https://c.Radikal больше не существует. Перезалейте изображение на другой хостинг!/c37/2010/00/74ef520f47ff.png[/img]
Год выпуска: 2019
Страна: США
Жанр: фантастика, боевик, приключения
Продолжительность: 8 x ~ 00:38:00
Перевод: Дублированный (профессиональный) | [Flarrow Films]
Режиссёр: Дебора Чоу, Рик Фамуйива, Дэйв Филони
В ролях: Педро Паскаль, Кайл Пацек, Брендан Уэйн, Бернард Баллен, Александра Гилман, Луис Ричард Гомес, Джамал Антар, Тейт Флетчер, Тони Табоада, Омид Абтахи и другие.-Описание: Одинокий мандалорец-наёмник живёт на краю обитаемой галактики, куда не дотягивается закон Новой Республики. Представитель некогда могучей расы благородных воинов теперь вынужден влачить жалкое существование среди отбросов общества.- -Качество: WEB-DL (2160p)
Формат: MKV
Видео кодек: HEVC
Видео: 3840x2160, ~16,3 Kb/s, 23.976 FPS, 10 bits
Аудио Rus: AC3, 320 kb/s, 2 ch, 48.0 kHz [Flarrow Films]
Аудио Eng: E-AC-3 JOC, 768 kb/s, 6 ch, 48.0 kHz [Original]
Субтитры: Русские, английские
Реклама: Отсутствует-

Релиз

Многоголосый Дубляж Flarrow Films
Роли дублировали: Глеб Петров, Дмитрий Лунёв, Дмитрий Кравченко, Дмитрий Бугаков, Денис Кузьмичёв, Ахилл Намазов, Алексей Щегорский, Марина Видякина, Рина Чернышова.
Локализация: Евгений Леонов.
Работа со звуком: Денис Юрьев.

Ознакомление

Трейлер

MediaInfo

General
Unique ID : 338249740908780703250503256168291276955 (0xFE7887CCDD7C204372CB0FA9D30E989B)
Complete name : E:\qBittorrent\Films torrent\The Mandalorian\The Mandalorian (1 серия).mkv
Format : Matroska
Format version : Version 4
File size : 4.70 GiB
Duration : 38 min 47 s
Overall bit rate : 17.4 Mb/s
Encoded date : UTC 2019-12-19 16:20:51
Writing application : mkvmerge v41.0.0 ('Smarra') 64-bit
Writing library : libebml v1.3.9 + libmatroska v1.5.2
Cover : Yes
Attachments : cover.jpg
Video
ID : 1
Format : HEVC
Format/Info : High Efficiency Video Coding
Format profile : Main 10@L5@High
Codec ID : V_MPEGH/ISO/HEVC
Duration : 38 min 46 s
Bit rate : 16.3 Mb/s
Width : 3 840 pixels
Height : 1 608 pixels
Original height : 2 160 pixels
Display aspect ratio : 16:9
Frame rate mode : Constant
Frame rate : 23.976 (24000/1001) FPS
Color space : YUV
Chroma subsampling : 4:2:0
Bit depth : 10 bits
Bits/(Pixel*Frame) : 0.110
Stream size : 4.41 GiB (94%)
Default : Yes
Forced : Yes
Color range : Limited
Color primaries : BT.2020
Transfer characteristics : PQ
Matrix coefficients : BT.2020 non-constant
Audio #1
ID : 2
Format : AC-3
Format/Info : Audio Coding 3
Commercial name : Dolby Digital
Codec ID : A_AC3
Duration : 38 min 47 s
Bit rate mode : Constant
Bit rate : 320 kb/s
Channel(s) : 2 channels
Channel layout : L R
Sampling rate : 48.0 kHz
Frame rate : 31.250 FPS (1536 SPF)
Compression mode : Lossy
Stream size : 88.8 MiB (2%)
Title : Flarrow Films
Language : Russian
Service kind : Complete Main
Default : Yes
Forced : Yes
Audio #2
ID : 3
Format : E-AC-3 JOC
Format/Info : Enhanced AC-3 with Joint Object Coding
Commercial name : Dolby Digital Plus with Dolby Atmos
Codec ID : A_EAC3
Duration : 38 min 46 s
Bit rate mode : Constant
Bit rate : 768 kb/s
Channel(s) : 6 channels
Channel layout : L R C LFE Ls Rs
Sampling rate : 48.0 kHz
Frame rate : 31.250 FPS (1536 SPF)
Compression mode : Lossy
Stream size : 213 MiB (4%)
Title : Original
Language : English
Service kind : Complete Main
Default : No
Forced : No
Complexity index : 16
Number of dynamic objects : 15
Bed channel count : 1 channel
Bed channel configuration : LFE
Text #1
ID : 4
Format : UTF-8
Codec ID : S_TEXT/UTF8
Codec ID/Info : UTF-8 Plain Text
Duration : 35 min 37 s
Bit rate : 51 b/s
Count of elements : 302
Stream size : 13.5 KiB (0%)
Language : Russian
Default : No
Forced : No
Text #2
ID : 5
Format : UTF-8
Codec ID : S_TEXT/UTF8
Codec ID/Info : UTF-8 Plain Text
Duration : 35 min 34 s
Bit rate : 41 b/s
Count of elements : 428
Stream size : 10.9 KiB (0%)
Title : English
Language : English
Default : No
Forced : No

Скриншоты

[thumb]https://b.Radikal больше не существует. Перезалейте изображение на другой хостинг!/b00/2006/81/667ac3fac225.png[/thumb][thumb]https://b.Radikal больше не существует. Перезалейте изображение на другой хостинг!/b08/2006/b5/13888a967892.png[/thumb][thumb]https://a.Radikal больше не существует. Перезалейте изображение на другой хостинг!/a29/2006/17/0c9b6b549f6c.png[/thumb][thumb]https://b.Radikal больше не существует. Перезалейте изображение на другой хостинг!/b34/2006/b5/73065448cde5.png[/thumb]
AdGuard VPN - бесплатный, надёжный и быстрый VPN
[korsars.pro].t34123.torrent 
Торрент: Зарегистрирован [ 2020-12-09 08:34 ] · AF19AF7070A78CA2E6D3306DC8FC82FC87D71B3E

Скачать .torrent

Размер .torrent файла 170 KB

Статус: проверено
.torrent скачан: 67 раз
Размер: 33,83 GB
Правила
4udaki(22-Дек-20)

AdGuard VPN - бесплатный, надёжный и быстрый VPN
Похожие темы

Вы не зарегистрированы на нашем сайте. Вам доступна для скачивания только часть контента. Чтобы увидеть весь контент сайта, пожалуйста, зарегистрируйтесь.

Дешевый и быстрый Сидбокс
У Вас отключен VIP статус, поэтому Вам показывается реклама на сайте. Вы можете поддержать наш ресурс и приобрести VIP статус, тем самым отключив показ рекламы на сайте, а ещё VIP пользователи получают 15 инвайтов, которыми можно поделиться с друзьями или знакомыми.
Дешевый и быстрый Сидбокс
AdGuard - Интернет без рекламы и слежки в любом браузере


Последний раз редактировалось: Kosty2099 (2020-12-20 13:54), всего редактировалось 2 раз(а)
[Профиль] [ЛС]

Создавать темы 09-Дек-2020 12:23 (спустя 4 часа)

Топик был перенесен из форума Американские в форум Сериалы
Причина переноса: Правильный форум
4udaki
AdGuard VPN - бесплатный, надёжный и быстрый VPN
 

Создавать темы 19-Дек-2020 16:19 (спустя 10 дней)

Топик был перенесен из форума Сериалы в форум Для удаленных раздач
Причина переноса: За 10 дней замечания не исправлены. Закрыто.
4udaki
AdGuard VPN - бесплатный, надёжный и быстрый VPN
 

Создавать темы 20-Дек-2020 12:59 (спустя 11 дней)

Топик был перенесен из форума Для удаленных раздач в форум Сериалы
Причина переноса: по просьбе автора раздачи.
4udaki
AdGuard VPN - бесплатный, надёжный и быстрый VPN
 
Показать сообщения:    
Ответить на тему

Текущее время: 28-Май 05:30

Часовой пояс: UTC + 4



Вы не можете начинать темы
Вы не можете отвечать на сообщения
Вы не можете редактировать свои сообщения
Вы не можете удалять свои сообщения
Вы не можете голосовать в опросах
Вы не можете прикреплять файлы к сообщениям
Вы можете скачивать файлы
Анализ сайта korsars.pro Яндекс.Метрика

Материал для зрителей старше 18 летВсе материалы на сайте получены из свободных источников в сети Интернет и представлены исключительно для личного (некоммерческого) использования лицами старше 18 лет.