Бэтмен: Рыцарь Готэма / Batman: Gotham Knight (2008) BDRip 1080p | Flarrow Films

Ответить на тему
Статистика раздачи [Обновить пиров]
Размер:  4,2 GB   |    Зарегистрирован:  5 месяцев 7 дней   |    .torrent скачан:  5 раз
Раздают:  5  [  0 KB/s  ]   Качают:  2  [  0 KB/s  ]   Подробная статистика пиров
 
   
 
 
Автор Сообщение

flarrowfilms ®

Оффлайн

Медали
VIPДруг трекераСупер Мега Контер Квейк


Пол: Не указан

Стаж: 1 год 1 месяц

Наличие запрета:

Сообщений: 80

Отдача: 5 Mb/s

Загрузка: 5 Mb/s

Нажми


Скачать Adguard бесплатно

Создавать темы 01-Дек-2020 22:14

[Цитировать]

Информация о фильме
Название: Бэтмен: Рыцарь Готэма
Оригинальное название: Batman: Gotham Knight
Год выхода: 2008
Жанр: аниме, мультфильм, фантастика, боевик, триллер, криминал
Режиссер: Ясухиро Аоки, Юитиро Хаяси, Футоси Хигасидэ
В ролях: Кевин Конрой, Джейсон Мэрсден, Скотт Менвиль, Джордж Ньюберн, Кори Паднос, Кристал Скейлс, Аланна Юбак, Хинден Уолш, Кори Бертон, Гари Дурдан
О фильме:
Этот мультипликационный фильм повествует о первых приключениях известного супергероя Бэтмэна. Он, фактически, соединяет сюжеты 2-х фильмов "Бэтмен: Начало" и "Тёмный рыцарь". Шесть короткометражных историй продолжительностью 11-15 минут, созданные японскими аниматорами.

Страна: США, Япония, Корея Южная
Продолжительность: 01:16:00
Перевод: Профессиональный (многоголосый, закадровый) | Flarrow Films
Роли озвучивали: Антон Алёхин, Ахилл Намазов, Дмитрий Кравченко, Алина Лихачева, Рина Чернышова, Юрий Катарманов, Алексей Ядренников и Семён Евсиков
Файл
Формат: MKV
Кодек: MPEG-4 AVC
Качество: BDRip 1080p
Видео: 1920х1080, ~ 7 596 kb/s, 23.976, 8 bits
Звук: AC-3, 320 kb/s, 2 channels, 48.0 kHz
Субтитры: русские (отключаемые UTF-8)-

MediaInfo

General
Unique ID : 311387167623289430203463875838078706578 (0xEA42FCAECEE8DB8D44B24448BA9D6392)
Complete name : C:\Flarrow\Batman.Gotham.Knight.2008.Flarrow.Films.mkv
Format : Matroska
Format version : Version 4
File size : 4.20 GiB
Duration : 1 h 16 min
Overall bit rate : 7 918 kb/s
Encoded date : UTC 2020-12-01 14:49:19
Writing application : mkvmerge v32.0.0 ('Astral Progressions') 64-bit
Writing library : libebml v1.3.7 + libmatroska v1.5.0
Video
ID : 1
Format : AVC
Format/Info : Advanced Video Codec
Format profile : High@L4.1
Format settings : CABAC / 5 Ref Frames
Format settings, CABAC : Yes
Format settings, Reference : 5 frames
Codec ID : V_MPEG4/ISO/AVC
Duration : 1 h 15 min
Bit rate : 7 596 kb/s
Width : 1 920 pixels
Height : 1 080 pixels
Display aspect ratio : 16:9
Frame rate mode : Constant
Frame rate : 23.976 FPS
Color space : YUV
Chroma subsampling : 4:2:0
Bit depth : 8 bits
Scan type : Progressive
Bits/(Pixel*Frame) : 0.153
Stream size : 4.03 GiB (96%)
Writing library : x264 core 59 r859M ce13bb6
Encoding settings : cabac=1 / ref=5 / deblock=1:0:0 / analyse=0x3:0x113 / me=umh / subme=7 / me-prepass=0 / brdo=1 / mixed_ref=1 / me_range=16 / chroma_me=1 / trellis=1 / 8x8dct=1 / cqm=0 / deadzone=21,11 / chroma_qp_offset=0 / threads=6 / nr=0 / decimate=1 / mbaff=0 / fgo=0 / bframes=3 / b_pyramid=1 / b_adapt=1 / b_bias=0 / direct=1 / wpredb=1 / bime=1 / keyint=250 / keyint_min=25 / scenecut=40(pre) / rc=2pass / bitrate=7596 / ratetol=1.0 / rceq='blurCplx^(1-qComp)' / qcomp=1.00 / qpmin=10 / qpmax=51 / qpstep=4 / cplxblur=20.0 / qblur=0.5 / ip_ratio=1.40 / pb_ratio=1.30 / aq=2:1.00
Default : Yes
Forced : No
Audio
ID : 2
Format : AC-3
Format/Info : Audio Coding 3
Commercial name : Dolby Digital
Codec ID : A_AC3
Duration : 1 h 16 min
Bit rate mode : Constant
Bit rate : 320 kb/s
Channel(s) : 2 channels
Channel layout : L R
Sampling rate : 48.0 kHz
Frame rate : 31.250 FPS (1536 SPF)
Compression mode : Lossy
Stream size : 174 MiB (4%)
Language : Russian
Service kind : Complete Main
Default : Yes
Text
ID : 3
Format : UTF-8
Codec ID : S_TEXT/UTF8
Codec ID/Info : UTF-8 Plain Text
Duration : 1 h 10 min
Bit rate : 75 b/s
Count of elements : 623
Stream size : 39.0 KiB (0%)
Language : Russian
Default : Yes
Forced : No
--Релиз от: Flarrow Films
Примечание: Без интро Flarrow Films- -
[korsars.pro].t33914.torrent 
Торрент: Зарегистрирован [ 2020-12-01 22:14 ] · 170A4B9CBEB084E26918F8E02943D6973A075FD3

Скачать .torrent

Размер .torrent файла 11 KB

Статус: * не проверено
.torrent скачан: 5 раз
Размер: 4,2 GB
Правила
Похожие темы

Вы не зарегистрированы на нашем сайте. Вам доступна для скачивания только часть контента. Чтобы увидеть весь контент сайта, пожалуйста, зарегистрироруйтесь.

У Вас отключен VIP статус, поэтому Вам показывается реклама на сайте. Вы можете поддержать наш ресурс и приобрести VIP статус, тем самым отключив показ рекламы на сайте, а ещё VIP пользователи получают возможность

смотреть аниме онлайн в HD качестве

(не распространяется на раздел Flarrow Films), а так же получить 5 инвайтов, которыми можно поделиться с друзьями или знакомыми.
[Профиль] [ЛС]
Показать сообщения:    
Ответить на тему

Текущее время: 09-Май 07:36

Часовой пояс: UTC + 4



Вы не можете начинать темы
Вы не можете отвечать на сообщения
Вы не можете редактировать свои сообщения
Вы не можете удалять свои сообщения
Вы не можете голосовать в опросах
Вы не можете прикреплять файлы к сообщениям
Вы можете скачивать файлы
Анализ сайта korsars.pro Яндекс.Метрика