Супермен/Бэтмен: Враги общества / Superman/Batman: Public Enemies (2009) BDRip 1080p | Flarrow Films

Ответить на тему
Статистика раздачи [Обновить пиров]
Размер:  2,5 GB   |    Зарегистрирован:  10 дней   |    .torrent скачан:  18 раз
Раздают:  6  [  0 KB/s  ]   Качают:  3  [  0 KB/s  ]   Подробная статистика пиров
 
   
 
 
Автор Сообщение

flarrowfilms ®

Оффлайн

Медали
VIPДруг трекераСупер Мега Контер Квейк


Пол: Не указан

Стаж: 8 месяцев 5 дней

Наличие запрета:

Сообщений: 55

Отдача: 5 Mb/s

Загрузка: 5 Mb/s

Нажми


Скачать Adguard бесплатно

Создавать темы 20-Ноя-2020 00:57

[Цитировать]

Информация о фильме
Название: Супермен/Бэтмен: Враги общества
Оригинальное название: Superman/Batman: Public Enemies
Год выхода: 2009
Жанр: мультфильм, фантастика, боевик, приключения
Режиссер: Сэм Лью
В ролях: Клэнси Браун, Кевин Конрой, Тим Дейли, Ксандер Беркли, Кори Бертон, Рикардо Чавира, Эллисон Мэк, Джон К. МакГинли, Си Си Эйч Паундер, ЛеВар Бёртон
О фильме:
Президент США Лекс Лютор хочет использовать надвигающиеся Криптонитовые астероиды чтобы победить Супермена. Ради этого он назначает награду в миллиард долларов за головы Супермена и его «сообщника в преступлениях» Бэтмена. Теперь героям предстоит предотвратить коварные планы Лутора, остановить астероиды и докопаться до правды.

Страна: США
Продолжительность: 01:07:02
Перевод: Профессиональный (многоголосый, закадровый) | Flarrow Films
Роли озвучивали: Антон Алёхин, Дмитрий Савкин, Денис Кузьмичёв, Рута Новикова, Рина Чернышова, Ахилл Намазов, Данила Глухов, Евгений Леонов, Дмитрий Кравченко и Семён Евсиков
Файл
Формат: MKV
Кодек: MPEG-4 AVC
Качество: BDRip 1080p
Видео: 1920х1080, ~ 5 013 kb/s, 23.976, 8 bits
Звук: AC-3, 320 kb/s, 2 channels, 48.0 kHz
Субтитры: русские (отключаемые UTF-8)-

MediaInfo

General
Unique ID : 31963362115559551297644816202934344146 (0x180BEB6C5BB2C9C741D1114635B559D2)
Complete name : C:\Flarrow\Superman.Batman.Public.Enemies.1080p.Flarrow.Films.mkv
Format : Matroska
Format version : Version 4
File size : 2.50 GiB
Duration : 1 h 7 min
Overall bit rate : 5 334 kb/s
Movie name : Superman. Batman: Public Enemies_CiNEFiLE+Shellshock[freehd.com.ua]
Encoded date : UTC 2020-11-19 19:14:42
Writing application : mkvmerge v32.0.0 ('Astral Progressions') 64-bit
Writing library : libebml v1.3.7 + libmatroska v1.5.0
Video
ID : 1
Format : AVC
Format/Info : Advanced Video Codec
Format profile : High@L4
Format settings : CABAC / 4 Ref Frames
Format settings, CABAC : Yes
Format settings, Reference : 4 frames
Codec ID : V_MPEG4/ISO/AVC
Duration : 1 h 7 min
Bit rate : 5 013 kb/s
Width : 1 920 pixels
Height : 1 080 pixels
Display aspect ratio : 16:9
Frame rate mode : Constant
Frame rate : 23.976 (24000/1001) FPS
Color space : YUV
Chroma subsampling : 4:2:0
Bit depth : 8 bits
Scan type : Progressive
Bits/(Pixel*Frame) : 0.101
Stream size : 2.35 GiB (94%)
Writing library : x264 core 76 r1271 496d79d
Encoding settings : cabac=1 / ref=4 / deblock=1:0:0 / analyse=0x3:0x113 / me=umh / subme=7 / psy=1 / psy_rd=1.0:0.0 / mixed_ref=1 / me_range=16 / chroma_me=1 / trellis=1 / 8x8dct=1 / cqm=0 / deadzone=21,11 / chroma_qp_offset=-2 / threads=6 / nr=0 / decimate=1 / mbaff=0 / bframes=3 / b_pyramid=0 / b_adapt=1 / b_bias=0 / direct=1 / wpredb=1 / keyint=250 / keyint_min=25 / scenecut=40 / rc_lookahead=40 / rc=2pass / mbtree=1 / bitrate=5013 / ratetol=1.0 / qcomp=0.60 / qpmin=10 / qpmax=51 / qpstep=4 / cplxblur=20.0 / qblur=0.5 / ip_ratio=1.40 / aq=1:1.00
Language : English
Default : Yes
Forced : No
Audio
ID : 2
Format : AC-3
Format/Info : Audio Coding 3
Commercial name : Dolby Digital
Codec ID : A_AC3
Duration : 1 h 7 min
Bit rate mode : Constant
Bit rate : 320 kb/s
Channel(s) : 2 channels
Channel layout : L R
Sampling rate : 48.0 kHz
Frame rate : 31.250 FPS (1536 SPF)
Compression mode : Lossy
Stream size : 153 MiB (6%)
Language : Russian
Service kind : Complete Main
Default : Yes
Forced : No
Text
ID : 3
Format : UTF-8
Codec ID : S_TEXT/UTF8
Codec ID/Info : UTF-8 Plain Text
Duration : 1 h 3 min
Bit rate : 80 b/s
Count of elements : 588
Stream size : 37.5 KiB (0%)
Language : Russian
Default : Yes
Forced : No
--Релиз от: Flarrow Films
Примечание: Без интро Flarrow Films- -
[korsars.pro].t33610.torrent 
Торрент: Зарегистрирован [ 2020-11-20 00:57 ] · C23B2F88F1C2ABAF04AC79F6781B516B1D701565

Скачать .torrent

Размер .torrent файла 13 KB

Статус: проверено
.torrent скачан: 18 раз
Размер: 2,5 GB
Правила
Похожие темы

[Профиль] [ЛС]
Показать сообщения:    
Ответить на тему

Текущее время: 30-Ноя 18:07

Часовой пояс: UTC + 4



Вы не можете начинать темы
Вы не можете отвечать на сообщения
Вы не можете редактировать свои сообщения
Вы не можете удалять свои сообщения
Вы не можете голосовать в опросах
Вы не можете прикреплять файлы к сообщениям
Вы можете скачивать файлы
Анализ сайта korsars.pro Яндекс.Метрика