Чудо-Женщина / Wonder Woman (2009) BDRip 1080p | Flarrow Films

Ответить на тему
Статистика раздачи [Обновить пиров]
Размер:  3,11 GB   |    Зарегистрирован:  6 дней   |    .torrent скачан:  1 раз
Раздают:  9  [  0 KB/s  ]   Качают:  3  [  0 KB/s  ]   Подробная статистика пиров
 
   
 
 
Автор Сообщение

flarrowfilms ®

Оффлайн

Медали
VIPДруг трекераСупер Мега Контер Квейк


Пол: Не указан

Стаж: 7 месяцев 30 дней

Наличие запрета:

Сообщений: 55

Отдача: 5 Mb/s

Загрузка: 5 Mb/s

Нажми


Скачать Adguard бесплатно

Создавать темы 17-Ноя-2020 16:04

[Цитировать]

Информация о фильме
Название: Чудо-женщина
Оригинальное название: Wonder Woman
Год выхода: 2009
Жанр: мультфильм, фантастика, фэнтези, боевик, приключения
Режиссер: Лорен Монтгомери
В ролях: Кери Рассел, Нэйтан Филлион, Альфред Молина, Розарио Доусон, Марг Хельгенбергер, Оливер Платт, Вирджиния Мэдсен, Скай Аренс, Джон Ди Маджио, Джулианна Гроссман
О фильме:
Арес, бог войны, был повергнут и заключен в тюрьму на затерянном острове амазонок... Военный истребитель терпит крушение на неизведанном острове. Пилот чудом выживает, но сразу же попадает в плен к недружелюбным амазонкам. Рассудительная королева принимает решение отправить мужчину во внешний мир, и на это опасное задание просится ее дочь, Диана, в силе и ловкости которой нет равных. К этому времени озлобленный Арес вырывается из темницы...

Страна: США
Продолжительность: 01:13:39
Перевод: Профессиональный (многоголосый, закадровый) | Flarrow Films
Роли озвучивали: Анастасия Скачкова, Денис Кузьмичёв, Рута Новикова, Лена Лунина, Андрей Маслов, Екатерина Луценко, Ахилл Намазов и Рина Чернышова
Файл
Формат: MKV
Кодек: MPEG-4 AVC
Качество: BDRip 1080p
Видео: 1920х1080, ~ 5 730 kb/s, 23.976, 8 bits
Звук: AC-3, 320 kb/s, 2 channels, 48.0 kHz
Субтитры: русские (отключаемые UTF-8)-

MediaInfo

General
Unique ID : 254303497526171905593507008369201999981 (0xBF511274265C3C1E1EF69E6F2DB3706D)
Complete name : C:\Flarrow\Wonder.Woman.2009.1080p.Flarrow.Films.mkv
Format : Matroska
Format version : Version 4
File size : 3.11 GiB
Duration : 1 h 13 min
Overall bit rate : 6 052 kb/s
Encoded date : UTC 2020-11-17 05:47:48
Writing application : mkvmerge v32.0.0 ('Astral Progressions') 64-bit
Writing library : libebml v1.3.7 + libmatroska v1.5.0
Video
ID : 1
Format : AVC
Format/Info : Advanced Video Codec
Format profile : High@L4.1
Format settings : CABAC / 4 Ref Frames
Format settings, CABAC : Yes
Format settings, Reference : 4 frames
Codec ID : V_MPEG4/ISO/AVC
Duration : 1 h 13 min
Bit rate : 5 730 kb/s
Width : 1 920 pixels
Height : 1 080 pixels
Display aspect ratio : 16:9
Frame rate mode : Constant
Frame rate : 23.976 FPS
Color space : YUV
Chroma subsampling : 4:2:0
Bit depth : 8 bits
Scan type : Progressive
Bits/(Pixel*Frame) : 0.115
Stream size : 2.95 GiB (95%)
Writing library : x264 core 100 r1659 57b2e56
Encoding settings : cabac=1 / ref=4 / deblock=1:0:0 / analyse=0x3:0x133 / me=umh / subme=7 / psy=1 / psy_rd=1.00:0.00 / mixed_ref=1 / me_range=16 / chroma_me=1 / trellis=1 / 8x8dct=1 / cqm=0 / deadzone=21,11 / fast_pskip=0 / chroma_qp_offset=-2 / threads=6 / sliced_threads=0 / nr=0 / decimate=0 / interlaced=0 / constrained_intra=0 / bframes=3 / b_pyramid=2 / b_adapt=1 / b_bias=0 / direct=1 / weightb=1 / open_gop=0 / weightp=2 / keyint=250 / keyint_min=25 / scenecut=40 / intra_refresh=0 / rc_lookahead=40 / rc=2pass / mbtree=1 / bitrate=5730 / ratetol=1.0 / qcomp=0.60 / qpmin=10 / qpmax=51 / qpstep=4 / cplxblur=20.0 / qblur=0.5 / ip_ratio=1.40 / aq=1:1.00
Language : English
Default : No
Forced : No
Audio
ID : 2
Format : AC-3
Format/Info : Audio Coding 3
Commercial name : Dolby Digital
Codec ID : A_AC3
Duration : 1 h 13 min
Bit rate mode : Constant
Bit rate : 320 kb/s
Channel(s) : 2 channels
Channel layout : L R
Sampling rate : 48.0 kHz
Frame rate : 31.250 FPS (1536 SPF)
Compression mode : Lossy
Stream size : 169 MiB (5%)
Language : Russian
Service kind : Complete Main
Default : Yes
Forced : No
Text
ID : 3
Format : UTF-8
Codec ID : S_TEXT/UTF8
Codec ID/Info : UTF-8 Plain Text
Duration : 1 h 8 min
Bit rate : 74 b/s
Count of elements : 461
Stream size : 37.5 KiB (0%)
Language : Russian
Default : Yes
Forced : No
--Релиз от: Flarrow Films
Примечание: Без интро Flarrow Films- -
[korsars.pro].t33545.torrent 
Торрент: Зарегистрирован [ 2020-11-17 16:04 ] · 70280A4F03CAD478C8700546F9DDAEA2122AED43

Скачать .torrent

Размер .torrent файла 16 KB

Статус: проверено
.torrent скачан: 1 раз
Размер: 3,11 GB
Правила
Похожие темы

[Профиль] [ЛС]
Показать сообщения:    
Ответить на тему

Текущее время: 24-Ноя 04:21

Часовой пояс: UTC + 4



Вы не можете начинать темы
Вы не можете отвечать на сообщения
Вы не можете редактировать свои сообщения
Вы не можете удалять свои сообщения
Вы не можете голосовать в опросах
Вы не можете прикреплять файлы к сообщениям
Вы можете скачивать файлы
Анализ сайта korsars.pro Яндекс.Метрика