Кровь Зевса / Blood of Zeus [S01] (2020) WEB-DL 1080p | Flarrow Films

Ответить на тему
Статистика раздачи [Обновить пиров]
Размер:  9,43 GB   |    Зарегистрирован:  1 год   |    .torrent скачан:  18 раз
Раздают:  10  [  0 KB/s  ]   Качают:  5  [  0 KB/s  ]   Подробная статистика пиров
 
   
 
 
Автор Сообщение

flarrowfilms ®

Оффлайн

Медали
VIPДруг трекераСупер Мега Контер Квейк


Пол: Не указан

Стаж: 1 год 8 месяцев

Наличие запрета:

Сообщений: 104

Отдача: 5 Mb/s

Загрузка: 5 Mb/s

Нажми


Скачать Adguard бесплатно

Создавать темы 10-Ноя-2020 17:45

[Цитировать]

Информация о фильме
Название: Кровь Зевса
Оригинальное название: Blood of Zeus
Год выхода: 2020
Жанр: мультфильм, боевик, фэнтези
Режиссер: Шант Нигогосян
В ролях: Клаудия Кристиан, Джейсон О'Мара, Дерек Филлипс, Илайс Туфексис, Джессика Хенвик, Крис Диамантополос, Адетокумбо Маккормак, Мэттью Мерсер, Мэми Гаммер, Адам Кроусделл
О фильме:
Житель Древней Греции Херон случайно узнает свое истинное предназначение. Выясняется, что он — сын Зевса, призванный спасти мир от демонической армии. В назревающей войне между богами Олимпа и титанами Херон, простолюдин, живущий на окраинах древней Греции, становится последней надеждой человечества на выживание среди армии злых демонов, когда узнает, что он сын Зевса.

Страна: США
Продолжительность: 00:27:38 (серия)
Перевод: Профессиональный (многоголосый, закадровый) | Flarrow Films
Роли озвучивали: Антон Алёхин, Андрей Маслов, Анастасия Скачкова, Лена Лунина, Рута Новикова, Алексей Ядренников, Артем Краковски и Семён Евсиков
Файл
Формат: MKV
Кодек: MPEG-4 AVC
Качество: WEB-DL 1080
Видео: 1920х1080, ~ 3 830 kb/s, 24.000, 8 bits
Звук: AC-3, 320 kb/s, 2 channels, 48.0 kHz
Субтитры: русские (отключаемые UTF-8)-

MediaInfo

General
Unique ID : 89182139411919961215466316059068634297 (0x4317DAF39DD576FDEFA53358A87494B9)
Complete name : C:\Flarrow\Blood.of.Zeus.S01.1080p.Flarrow.Films\Blood.of.Zeus.S01E01.mkv
Format : Matroska
Format version : Version 4
File size : 791 MiB
Duration : 27 min 39 s
Overall bit rate mode : Variable
Overall bit rate : 4 000 kb/s
Encoded date : UTC 2020-10-30 16:41:20
Writing application : mkvmerge v32.0.0 ('Astral Progressions') 64-bit
Writing library : libebml v1.3.7 + libmatroska v1.5.0
Video
ID : 1
Format : AVC
Format/Info : Advanced Video Codec
Format profile : Main@L4
Format settings : CABAC / 3 Ref Frames
Format settings, CABAC : Yes
Format settings, Reference : 3 frames
Codec ID : V_MPEG4/ISO/AVC
Duration : 27 min 38 s
Bit rate mode : Variable
Bit rate : 3 830 kb/s
Maximum bit rate : 5 745 kb/s
Width : 1 920 pixels
Height : 1 080 pixels
Display aspect ratio : 16:9
Frame rate mode : Constant
Frame rate : 24.000 FPS
Color space : YUV
Chroma subsampling : 4:2:0
Bit depth : 8 bits
Scan type : Progressive
Bits/(Pixel*Frame) : 0.077
Stream size : 728 MiB (92%)
Writing library : x264 core 148 r2722 1b0121b
Encoding settings : cabac=1 / ref=3 / deblock=1:0:0 / analyse=0x1:0x111 / me=umh / subme=10 / psy=1 / psy_rd=1.00:0.00 / mixed_ref=1 / me_range=24 / chroma_me=1 / trellis=2 / 8x8dct=0 / cqm=0 / deadzone=21,11 / fast_pskip=1 / chroma_qp_offset=-2 / threads=8 / lookahead_threads=1 / sliced_threads=0 / nr=0 / decimate=1 / interlaced=0 / bluray_compat=0 / stitchable=1 / constrained_intra=0 / bframes=2 / b_pyramid=0 / b_adapt=2 / b_bias=0 / direct=3 / weightb=1 / open_gop=0 / weightp=2 / keyint=250 / keyint_min=24 / scenecut=0 / intra_refresh=0 / rc_lookahead=48 / rc=2pass / mbtree=1 / bitrate=3830 / ratetol=1.0 / qcomp=0.50 / qpmin=6 / qpmax=51 / qpstep=4 / cplxblur=20.0 / qblur=0.5 / vbv_maxrate=5745 / vbv_bufsize=7660 / nal_hrd=vbr / filler=0 / ip_ratio=1.40 / aq=1:1.00
Default : Yes
Forced : No
Audio
ID : 2
Format : AC-3
Format/Info : Audio Coding 3
Commercial name : Dolby Digital
Codec ID : A_AC3
Duration : 27 min 39 s
Bit rate mode : Constant
Bit rate : 320 kb/s
Channel(s) : 2 channels
Channel layout : L R
Sampling rate : 48.0 kHz
Frame rate : 31.250 FPS (1536 SPF)
Compression mode : Lossy
Stream size : 63.3 MiB (8%)
Language : Russian
Service kind : Complete Main
Default : Yes
Forced : No
Text
ID : 3
Format : UTF-8
Codec ID : S_TEXT/UTF8
Codec ID/Info : UTF-8 Plain Text
Duration : 24 min 16 s
Bit rate : 54 b/s
Count of elements : 145
Stream size : 9.66 KiB (0%)
Language : Russian
Default : Yes
Forced : No
--Релиз от: Flarrow Films
Примечание: Без интро Flarrow Films- -
[korsars.pro].t33388.torrent 
Торрент: Зарегистрирован [ 2020-11-10 17:45 ] · 6F4AE34A59D6A56513101436194BD6B7D2C2CD7B

Скачать .torrent

Размер .torrent файла 24 KB

Статус: проверено
.torrent скачан: 18 раз
Размер: 9,43 GB
Правила
Похожие темы

Вы не зарегистрированы на нашем сайте. Вам доступна для скачивания только часть контента. Чтобы увидеть весь контент сайта, пожалуйста, зарегистрироруйтесь.

Дешевый и быстрый Сидбокс

Ключи и пин-коды

Игры, Кредитные карты, IP-телефония, Интернет провайдеры, Мобильная связь, Спутниковое ТВ

Электронные книги

Бизнес и экономика, Дом, быт, семья, досуг, Санкт-Петербург, Компьютеры и интернет, Наука и образование, Техническая литература, Юридическая литература

Цифровые товары

iTunes & App Store, Базы данных, Дизайн, Доступ к ресурсам, Kарты продления, ключи, Фотографии, Шаблоны для сайтов

Программное обеспечение

Безопасность, Игры, PC, Интернет, Мобильная связь, Программирование, Продвижение сайтов (SEO), Утилиты
У Вас отключен VIP статус, поэтому Вам показывается реклама на сайте. Вы можете поддержать наш ресурс и приобрести VIP статус, тем самым отключив показ рекламы на сайте, а ещё VIP пользователи получают возможность

смотреть аниме онлайн в HD качестве

(не распространяется на раздел Flarrow Films), а так же получить 5 инвайтов, которыми можно поделиться с друзьями или знакомыми.
Дешевый и быстрый Сидбокс

Ключи и пин-коды

Игры, Кредитные карты, IP-телефония, Интернет провайдеры, Мобильная связь, Спутниковое ТВ

Электронные книги

Бизнес и экономика, Дом, быт, семья, досуг, Санкт-Петербург, Компьютеры и интернет, Наука и образование, Техническая литература, Юридическая литература

Цифровые товары

iTunes & App Store, Базы данных, Дизайн, Доступ к ресурсам, Kарты продления, ключи, Фотографии, Шаблоны для сайтов

Программное обеспечение

Безопасность, Игры, PC, Интернет, Мобильная связь, Программирование, Продвижение сайтов (SEO), Утилиты
[Профиль] [ЛС]
Показать сообщения:    
Ответить на тему

Текущее время: 09-Дек 18:00

Часовой пояс: UTC + 4



Вы не можете начинать темы
Вы не можете отвечать на сообщения
Вы не можете редактировать свои сообщения
Вы не можете удалять свои сообщения
Вы не можете голосовать в опросах
Вы не можете прикреплять файлы к сообщениям
Вы можете скачивать файлы
Анализ сайта korsars.pro Яндекс.Метрика