Кипо и эра чудесных зверей / Kipo and the Age of Wonderbeasts [S03] (2020) WEB-DL 1080p | Flarrow Films

Ответить на тему
Статистика раздачи [Обновить пиров]
Размер:  4,62 GB   |    Зарегистрирован:  4 месяца 3 дня   |    .torrent скачан:  2 раза
Раздают:  8  [  0 KB/s  ]   Качают:  3  [  0 KB/s  ]   Подробная статистика пиров
 
   
 
 
Автор Сообщение

flarrowfilms ®

Оффлайн

Медали
VIPДруг трекераСупер Мега Контер Квейк


Пол: Не указан

Стаж: 11 месяцев 13 дней

Наличие запрета:

Сообщений: 71

Отдача: 5 Mb/s

Загрузка: 5 Mb/s

Нажми


Скачать Adguard бесплатно

Создавать темы 04-Ноя-2020 17:05

[Цитировать]

Информация о фильме
Название: Кипо и эра чудесных зверей
Оригинальное название: Kipo and the Age of Wonderbeasts
Год выхода: 2020
Жанр: мультфильм, мюзикл, фэнтези, боевик, приключения
Режиссер: Young Ki Yoon, Bridget Underwood, Мэтт Аренс
В ролях: Карен Фукухара, Сидни Микайла, Ди Брэдли Бейкер, Стерлинг К. Браун, Рея Бутчер, Деон Коул, Лиа ДеЛария, Джэйк Грин, Грэй Гриффин, Джиза, Иэн Хардинг
О фильме:
12-летняя девочка Кипо всю свою жизнь жила под землей, потому что на поверхности наступил апокалипсис неизвестного происхождения. Однажды ей приходится бежать из убежища, и она попадает в удивительный изменившийся мир, в котором флора и фауна мутировала. Там она встречает Волчицу, которая поможет Кипо найти отца и выжить в этом диком мире, и еще несколько попутчиков: четырехглавую и шестиногую свинью Мандо, жизнерадостного парня Бенсона и его напарника — жука-мутанта Дейва, который рандомным образом передвигается по разным стадиям старения.

Страна: США
Продолжительность: 00:23:12 (серия)
Перевод: Профессиональный (многоголосый, закадровый) | Flarrow Films
Роли озвучивали: Рина Чернышова, Ахилл Намазов, Денис Кузьмичёв, Семён Евсиков, Мари Тристан, Екатерина Дмитрова и Ашраф Мансур
Файл
Формат: MKV
Кодек: MPEG-4 AVC
Качество: WEB-DL 1080
Видео: 1920х1080, ~ 2 610 kb/s, 23.976 FPS, 8 bits
Звук: AC-3, 320 kb/s, 2 channels, 48.0 kHz
Субтитры: русские (отключаемые UTF-8)-

MediaInfo

General
Unique ID : 267853488684144567383100480748540605727 (0xC982B498CCB82B84F6B8DFAF4E83351F)
Complete name : C:\Flarrow\Kipo.And.The.Age.Of.Wonderbeasts.S03.1080p.Flarrow.Films\Kipo.And.The.Age.Of.Wonderbeasts.S03E01.mkv
Format : Matroska
Format version : Version 4
File size : 474 MiB
Duration : 23 min 11 s
Overall bit rate mode : Variable
Overall bit rate : 2 856 kb/s
Encoded date : UTC 2020-10-19 17:57:37
Writing application : mkvmerge v32.0.0 ('Astral Progressions') 64-bit
Writing library : libebml v1.3.7 + libmatroska v1.5.0
Video
ID : 1
Format : AVC
Format/Info : Advanced Video Codec
Format profile : Main@L4
Format settings : CABAC / 3 Ref Frames
Format settings, CABAC : Yes
Format settings, Reference : 3 frames
Codec ID : V_MPEG4/ISO/AVC
Duration : 23 min 10 s
Bit rate mode : Variable
Bit rate : 2 610 kb/s
Maximum bit rate : 3 915 kb/s
Width : 1 920 pixels
Height : 1 080 pixels
Display aspect ratio : 16:9
Frame rate mode : Constant
Frame rate : 23.976 (24000/1001) FPS
Color space : YUV
Chroma subsampling : 4:2:0
Bit depth : 8 bits
Scan type : Progressive
Bits/(Pixel*Frame) : 0.052
Stream size : 420 MiB (89%)
Writing library : x264 core 148 r2722 1b0121b
Encoding settings : cabac=1 / ref=3 / deblock=1:0:0 / analyse=0x1:0x111 / me=umh / subme=10 / psy=1 / psy_rd=1.00:0.00 / mixed_ref=1 / me_range=24 / chroma_me=1 / trellis=2 / 8x8dct=0 / cqm=0 / deadzone=21,11 / fast_pskip=1 / chroma_qp_offset=-2 / threads=8 / lookahead_threads=1 / sliced_threads=0 / nr=0 / decimate=1 / interlaced=0 / bluray_compat=0 / stitchable=1 / constrained_intra=0 / bframes=2 / b_pyramid=0 / b_adapt=2 / b_bias=0 / direct=3 / weightb=1 / open_gop=0 / weightp=2 / keyint=250 / keyint_min=23 / scenecut=0 / intra_refresh=0 / rc_lookahead=48 / rc=2pass / mbtree=1 / bitrate=2610 / ratetol=1.0 / qcomp=0.50 / qpmin=6 / qpmax=51 / qpstep=4 / cplxblur=20.0 / qblur=0.5 / vbv_maxrate=3915 / vbv_bufsize=5220 / nal_hrd=vbr / filler=0 / ip_ratio=1.40 / aq=1:1.00
Default : Yes
Forced : No
Audio
ID : 2
Format : AC-3
Format/Info : Audio Coding 3
Commercial name : Dolby Digital
Codec ID : A_AC3
Duration : 23 min 11 s
Bit rate mode : Constant
Bit rate : 320 kb/s
Channel(s) : 2 channels
Channel layout : L R
Sampling rate : 48.0 kHz
Frame rate : 31.250 FPS (1536 SPF)
Compression mode : Lossy
Stream size : 53.1 MiB (11%)
Language : Russian
Service kind : Complete Main
Default : Yes
Forced : No
Text
ID : 3
Format : UTF-8
Codec ID : S_TEXT/UTF8
Codec ID/Info : UTF-8 Plain Text
Duration : 21 min 57 s
Bit rate : 138 b/s
Count of elements : 395
Stream size : 22.3 KiB (0%)
Language : Russian
Default : Yes
Forced : No
--Релиз от: Flarrow Films
Примечание: Без интро Flarrow Films- -

[korsars.pro].t33236.torrent 
Торрент: Зарегистрирован [ 2020-11-04 17:05 ] · 1D2933EABDC1FE238D9C6AB820BD3988FAE4FCDD

Скачать .torrent

Размер .torrent файла 12 KB

Статус: проверено
.torrent скачан: 2 раз
Размер: 4,62 GB
Правила
Похожие темы

Вы не зарегистрированы на нашем сайте. Вам доступна для скачивания только часть контента. Чтобы увидеть весь контент сайта, пожалуйста, зарегистрироруйтесь.

У Вас отключен VIP статус, поэтому Вам показывается реклама на сайте. Вы можете поддержать наш ресурс и приобрести VIP статус, тем самым отключив показ рекламы на сайте, а ещё VIP пользователи получают возможность

смотреть фильмы, сериалы и аниме онлайн в HD качестве

(не распространяется на раздел Flarrow Films), а так же получить 5 инвайтов, которыми можно поделиться с друзьями или знакомыми.
[Профиль] [ЛС]
Показать сообщения:    
Ответить на тему

Текущее время: 07-Мар 19:01

Часовой пояс: UTC + 4



Вы не можете начинать темы
Вы не можете отвечать на сообщения
Вы не можете редактировать свои сообщения
Вы не можете удалять свои сообщения
Вы не можете голосовать в опросах
Вы не можете прикреплять файлы к сообщениям
Вы можете скачивать файлы
Анализ сайта korsars.pro Яндекс.Метрика