Бэтмен: Маска Фантазма / Batman: Mask of the Phantasm (1993) BDRip 1080p | Flarrow Films

Ответить на тему
Статистика раздачи [Обновить пиров]
Размер:  7,3 GB   |    Зарегистрирован:  5 месяцев 1 день   |    .torrent скачан:  2 раза
Раздают:  6  [  0 KB/s  ]   Качают:  5  [  0 KB/s  ]   Подробная статистика пиров
 
   
 
 
Автор Сообщение

flarrowfilms ®

Оффлайн

Медали
VIPДруг трекераСупер Мега Контер Квейк


Пол: Не указан

Стаж: 11 месяцев 9 дней

Наличие запрета:

Сообщений: 71

Отдача: 5 Mb/s

Загрузка: 5 Mb/s

Нажми


Скачать Adguard бесплатно

Создавать темы 01-Окт-2020 22:06

[Цитировать]

Информация о фильме
Название: Бэтмен: Маска Фантазма
Оригинальное название: Batman: Mask of the Phantasm
Год выхода: 1993
Жанр: мультфильм, фантастика, боевик, триллер, драма, криминал, детектив
Режиссер: Кевин Алтери, Бойд Керклэнд, Фрэнк Пор
В ролях: Кевин Конрой, Марк Хэмилл, Дана Дилэйни, Харт Бокнер, Стейси Кич, Эйб Вигода, Дик Миллер, Джон П. Райан, Ефрем Цимбалист мл., Боб Хатингс, Роберт Костанцо
О фильме:
В Готэме появляется новый борец с преступностью - Фантазм, который в отличие от Бэтмена попросту убивает уголовников. От его руки гибнут мафиозные боссы Чаки Сол и Базз Бронски – члены старой банды, орудовавшей в городе еще до появления человека-летучей мыши. Главарем банды был Сальваторе Валестра, именно он является следующей мишенью Фантазма. Идя по следу убийцы, Бэтмен приходит к выводу, что тот связан с событиями из его прошлого.

Страна: США
Продолжительность: 01:16:27
Перевод: Профессиональный (многоголосый, закадровый) | Flarrow Films
Роли озвучивали: Антон Алёхин, Анастасия Скачкова, Глеб Петров, Дмитрий Кравченко, Семён Евсиков, Денис Кузьмичёв, Дмитрий Мальков и Рута Новикова
Файл
Формат: MKV
Кодек: MPEG-4 AVC
Качество: BDRip 1080p
Видео: 1920х1080, ~ 13.4 Mb/s, 23.976, 8 bits
Звук: AC-3, 320 kb/s, 2 channels, 48.0 kHz
Субтитры: Русские (отключаемые UTF-8)-

MediaInfo

General
Unique ID : 260039139952255764250936137796963339601 (0xC3A1B7755EBD6A30226D767C8CF90D51)
Complete name : C:\Flarrow\Batman.Mask.of.the.Phantasm.1993.1080p.Flarrow.Films.mkv
Format : Matroska
Format version : Version 4
File size : 7.30 GiB
Duration : 1 h 16 min
Overall bit rate : 13.7 Mb/s
Encoded date : UTC 2020-10-01 12:43:43
Writing application : mkvmerge v32.0.0 ('Astral Progressions') 64-bit
Writing library : libebml v1.3.7 + libmatroska v1.5.0
Video
ID : 1
Format : AVC
Format/Info : Advanced Video Codec
Format profile : High@L4.1
Format settings : CABAC / 4 Ref Frames
Format settings, CABAC : Yes
Format settings, Reference : 4 frames
Codec ID : V_MPEG4/ISO/AVC
Duration : 1 h 16 min
Bit rate : 13.4 Mb/s
Width : 1 920 pixels
Height : 1 080 pixels
Display aspect ratio : 16:9
Frame rate mode : Constant
Frame rate : 23.976 (24000/1001) FPS
Color space : YUV
Chroma subsampling : 4:2:0
Bit depth : 8 bits
Scan type : Progressive
Bits/(Pixel*Frame) : 0.269
Stream size : 7.13 GiB (98%)
Writing library : x264 core 152 r2851 ba24899
Encoding settings : cabac=1 / ref=4 / deblock=1:1:-2 / analyse=0x3:0x113 / me=umh / subme=8 / psy=1 / psy_rd=0.50:0.00 / mixed_ref=1 / me_range=32 / chroma_me=1 / trellis=1 / 8x8dct=1 / cqm=0 / deadzone=21,11 / fast_pskip=1 / chroma_qp_offset=-2 / threads=24 / lookahead_threads=4 / sliced_threads=0 / nr=0 / decimate=1 / interlaced=0 / bluray_compat=0 / constrained_intra=0 / bframes=3 / b_pyramid=2 / b_adapt=2 / b_bias=0 / direct=3 / weightb=1 / open_gop=0 / weightp=2 / keyint=240 / keyint_min=24 / scenecut=40 / intra_refresh=0 / rc_lookahead=50 / rc=2pass / mbtree=1 / bitrate=13360 / ratetol=1.0 / qcomp=0.60 / qpmin=0 / qpmax=69 / qpstep=4 / cplxblur=20.0 / qblur=0.5 / ip_ratio=1.40 / aq=3:0.50
Default : Yes
Forced : No
Audio
ID : 2
Format : AC-3
Format/Info : Audio Coding 3
Commercial name : Dolby Digital
Codec ID : A_AC3
Duration : 1 h 16 min
Bit rate mode : Constant
Bit rate : 320 kb/s
Channel(s) : 2 channels
Channel layout : L R
Sampling rate : 48.0 kHz
Frame rate : 31.250 FPS (1536 SPF)
Compression mode : Lossy
Stream size : 175 MiB (2%)
Language : Russian
Service kind : Complete Main
Default : Yes
Forced : No
Text
ID : 3
Format : UTF-8
Codec ID : S_TEXT/UTF8
Codec ID/Info : UTF-8 Plain Text
Duration : 1 h 12 min
Bit rate : 78 b/s
Count of elements : 960
Stream size : 41.4 KiB (0%)
Language : Russian
Default : Yes
Forced : No
Menu
00:00:00.000 : en:00:00:00.000
00:01:47.107 : en:00:01:47.107
00:05:00.217 : en:00:05:00.217
00:06:31.850 : en:00:06:31.850
00:08:01.648 : en:00:08:01.648
00:10:24.082 : en:00:10:24.082
00:15:42.984 : en:00:15:42.984
00:21:32.917 : en:00:21:32.917
00:24:36.016 : en:00:24:36.016
00:26:04.605 : en:00:26:04.605
00:28:19.823 : en:00:28:19.823
00:30:35.542 : en:00:30:35.542
00:31:37.521 : en:00:31:37.521
00:34:05.877 : en:00:34:05.877
00:36:25.517 : en:00:36:25.517
00:40:15.538 : en:00:40:15.538
00:41:56.514 : en:00:41:56.514
00:43:53.506 : en:00:43:53.506
00:47:10.161 : en:00:47:10.161
00:51:39.471 : en:00:51:39.471
00:52:35.736 : en:00:52:35.736
00:55:17.481 : en:00:55:17.481
00:57:31.448 : en:00:57:31.448
00:58:55.365 : en:00:58:55.365
00:59:38.241 : en:00:59:38.241
01:04:04.174 : en:01:04:04.174
01:06:36.576 : en:01:06:36.576
01:08:00.743 : en:01:08:00.743
01:09:58.194 : en:01:09:58.194
01:12:20.336 : en:01:12:20.336
--Релиз от: Flarrow Films
Примечание: Без интро Flarrow Films- -

[korsars.pro].t32355.torrent 
Торрент: Зарегистрирован [ 2020-10-01 22:06 ] · 614B6B5B9159604B4186344A7D7FF1D6A6F603FE

Скачать .torrent

Размер .torrent файла 18 KB

Статус: проверено
.torrent скачан: 2 раз
Размер: 7,3 GB
Правила
Похожие темы

Вы не зарегистрированы на нашем сайте. Вам доступна для скачивания только часть контента. Чтобы увидеть весь контент сайта, пожалуйста, зарегистрироруйтесь.

У Вас отключен VIP статус, поэтому Вам показывается реклама на сайте. Вы можете поддержать наш ресурс и приобрести VIP статус, тем самым отключив показ рекламы на сайте, а ещё VIP пользователи получают возможность

смотреть фильмы, сериалы и аниме онлайн в HD качестве

(не распространяется на раздел Flarrow Films), а так же получить 5 инвайтов, которыми можно поделиться с друзьями или знакомыми.
[Профиль] [ЛС]
Показать сообщения:    
Ответить на тему

Текущее время: 02-Мар 23:28

Часовой пояс: UTC + 4



Вы не можете начинать темы
Вы не можете отвечать на сообщения
Вы не можете редактировать свои сообщения
Вы не можете удалять свои сообщения
Вы не можете голосовать в опросах
Вы не можете прикреплять файлы к сообщениям
Вы можете скачивать файлы
Анализ сайта korsars.pro Яндекс.Метрика