Супермен: Судный день / Superman/Doomsday (2007) BDRip 1080p | Flarrow Films

Ответить на тему
Статистика раздачи [Обновить пиров]
Размер:  2,25 GB   |    Зарегистрирован:  5 месяцев 7 дней   |    .torrent скачан:  4 раза
Раздают:  2  [  0 KB/s  ]   Качают:  3  [  0 KB/s  ]   Подробная статистика пиров
 
   
 
 
 
Автор Сообщение

flarrowfilms ®

Оффлайн

Медали
VIPДруг трекераСупер Мега Контер Квейк


Пол: Не указан

Стаж: 11 месяцев 12 дней

Наличие запрета:

Сообщений: 71

Отдача: 5 Mb/s

Загрузка: 5 Mb/s

Нажми


Скачать Adguard бесплатно

Создавать темы 28-Сен-2020 21:57

[Цитировать]

Информация о фильме
Название: Супермен: Судный день
Оригинальное название: Superman/Doomsday
Год выхода: 2007
Жанр: мультфильм, фантастика, боевик, драма, приключения
Режиссер: Лорен Монтгомери, Брюс В. Тимм, Брэндон Виетти
В ролях: Адам Болдуин, Энн Хеч, Джеймс Марстерс, Джон Ди Маджио, Том Кенни, Свузи Кёрц, Кри Саммер, Рэй Уайз, Адам Вайли, Крис Кокс
О фильме:
Когда Лекскорп случайно освобождает из заточения межгалактического серийного убийцу, Супермэн жертвует собой, чтобы его остановить. Весь мир скорбит о павшем герое, человечество понимает, что уже никогда не будет в безопасности. Враги Супермэна ликуют, все кроме Лекса Лютора, который по-своему сожалеет о потере, чем вызывает цепочку событий, которых даже он не смог предвидеть.

Страна: США
Продолжительность: 01:17:41
Перевод: Профессиональный (многоголосый, закадровый) | Flarrow Films
Роли озвучивали: Дмитрий Савкин, Рина Черышова, Рута Новикова, Денис Кузьмичёв, Ашраф Мансур и Семён Евсиков
Файл
Формат: MKV
Кодек: MPEG-4 AVC
Качество: BDRip 1080p
Видео: 1920х1080, ~ 3 826 kb/s, 23.976, 8 bits
Звук: AC-3, 320 kb/s, 2 channels, 48.0 kHz
Субтитры: Русские (отключаемые UTF-8)-

MediaInfo

General
Unique ID : 190574257144958470301444351309391635136 (0x8F5F44500D14F5601BDE8BA52818A2C0)
Complete name : C:\Flarrow\Superman.Doomsday.2007.1080p.Flarrow.Films.mkv
Format : Matroska
Format version : Version 4
File size : 2.25 GiB
Duration : 1 h 17 min
Overall bit rate : 4 147 kb/s
Movie name : Superman - Doomsday (2007) 1080p BDRip x265 10bit AC3 5.1 - Goki
Encoded date : UTC 2020-09-28 16:48:13
Writing application : mkvmerge v32.0.0 ('Astral Progressions') 64-bit
Writing library : libebml v1.3.7 + libmatroska v1.5.0
Video
ID : 1
Format : HEVC
Format/Info : High Efficiency Video Coding
Format profile : Main 10@L4@Main
Codec ID : V_MPEGH/ISO/HEVC
Duration : 1 h 17 min
Bit rate : 3 826 kb/s
Width : 1 920 pixels
Height : 1 080 pixels
Display aspect ratio : 16:9
Frame rate mode : Constant
Frame rate : 23.976 (24000/1001) FPS
Color space : YUV
Chroma subsampling : 4:2:0
Bit depth : 10 bits
Bits/(Pixel*Frame) : 0.077
Stream size : 2.08 GiB (92%)
Writing library : x265 2.9+8-27d8424c799d:[Windows][MSVC 1915][64 bit] 10bit
Encoding settings : cpuid=1111039 / frame-threads=3 / numa-pools=8 / wpp / no-pmode / no-pme / no-psnr / no-ssim / log-level=2 / input-csp=1 / input-res=1920x1080 / interlace=0 / total-frames=0 / level-idc=0 / high-tier=1 / uhd-bd=0 / ref=4 / no-allow-non-conformance / no-repeat-headers / annexb / no-aud / no-hrd / info / hash=0 / no-temporal-layers / open-gop / min-keyint=23 / keyint=250 / gop-lookahead=0 / bframes=8 / b-adapt=2 / b-pyramid / bframe-bias=0 / rc-lookahead=100 / lookahead-slices=4 / scenecut=40 / radl=0 / no-intra-refresh / ctu=64 / min-cu-size=8 / no-rect / no-amp / max-tu-size=32 / tu-inter-depth=2 / tu-intra-depth=2 / limit-tu=4 / rdoq-level=2 / dynamic-rd=0.00 / no-ssim-rd / signhide / no-tskip / nr-intra=0 / nr-inter=0 / no-constrained-intra / no-strong-intra-smoothing / max-merge=3 / limit-refs=2 / limit-modes / me=3 / subme=5 / merange=57 / temporal-mvp / weightp / weightb / no-analyze-src-pics / deblock=0:0 / sao / no-sao-non-deblock / rd=6 / no-early-skip / rskip / no-fast-intra / no-tskip-fast / no-cu-lossless / b-intra / no-splitrd-skip / rdpenalty=0 / psy-rd=1.30 / psy-rdoq=2.00 / no-rd-refine / no-lossless / cbqpoffs=0 / crqpoffs=0 / rc=crf / crf=17.0 / qcomp=0.60 / qpstep=4 / stats-write=0 / stats-read=0 / ipratio=1.40 / pbratio=1.30 / aq-mode=2 / aq-strength=1.10 / cutree / zone-count=0 / no-strict-cbr / qg-size=32 / no-rc-grain / qpmax=69 / qpmin=0 / no-const-vbv / sar=1 / overscan=0 / videoformat=5 / range=0 / colorprim=2 / transfer=2 / colormatrix=2 / chromaloc=0 / display-window=0 / max-cll=0,0 / min-luma=0 / max-luma=1023 / log2-max-poc-lsb=8 / vui-timing-info / vui-hrd-info / slices=1 / no-opt-qp-pps / no-opt-ref-list-length-pps / no-multi-pass-opt-rps / scenecut-bias=0.05 / no-opt-cu-delta-qp / no-aq-motion / no-hdr / no-hdr-opt / no-dhdr10-opt / no-idr-recovery-sei / analysis-reuse-level=5 / scale-factor=0 / refine-intra=0 / refine-inter=0 / refine-mv=0 / no-limit-sao / ctu-info=0 / no-lowpass-dct / refine-mv-type=0 / copy-pic=1 / max-ausize-factor=1.0 / no-dynamic-refine / no-single-sei
Default : Yes
Forced : No
Audio
ID : 2
Format : AC-3
Format/Info : Audio Coding 3
Commercial name : Dolby Digital
Codec ID : A_AC3
Duration : 1 h 17 min
Bit rate mode : Constant
Bit rate : 320 kb/s
Channel(s) : 2 channels
Channel layout : L R
Sampling rate : 48.0 kHz
Frame rate : 31.250 FPS (1536 SPF)
Compression mode : Lossy
Stream size : 178 MiB (8%)
Language : Russian
Service kind : Complete Main
Default : Yes
Forced : No
Text
ID : 3
Format : UTF-8
Codec ID : S_TEXT/UTF8
Codec ID/Info : UTF-8 Plain Text
Duration : 1 h 14 min
Bit rate : 68 b/s
Count of elements : 646
Stream size : 37.7 KiB (0%)
Language : Russian
Default : Yes
Forced : No
Menu
00:00:00.000 : :00:00:00.000
00:03:09.523 : :00:03:09.523
00:06:25.719 : :00:06:25.719
00:08:50.697 : :00:08:50.697
00:15:56.789 : :00:15:56.789
00:21:52.478 : :00:21:52.478
00:24:17.790 : :00:24:17.790
00:28:08.520 : :00:28:08.520
00:30:55.520 : :00:30:55.520
00:32:39.624 : :00:32:39.624
00:34:26.564 : :00:34:26.564
00:37:22.407 : :00:37:22.407
00:40:35.266 : :00:40:35.266
00:43:41.786 : :00:43:41.786
00:48:02.379 : :00:48:02.379
00:54:02.406 : :00:54:02.406
01:01:27.017 : :01:01:27.017
01:09:52.855 : :01:09:52.855
01:13:18.728 : :01:13:18.728
01:14:39.308 : :01:14:39.308
--Релиз от: Flarrow Films
Примечание: Без интро Flarrow Films- -

[korsars.pro].t32268.torrent 
Торрент: Зарегистрирован [ 2020-09-28 21:57 ] · 98B66F30C1D10117CBC8B800B2E74F63FCEA442A

Скачать .torrent

Размер .torrent файла 11 KB

Статус: проверено
.torrent скачан: 4 раз
Размер: 2,25 GB
Правила
Похожие темы

Вы не зарегистрированы на нашем сайте. Вам доступна для скачивания только часть контента. Чтобы увидеть весь контент сайта, пожалуйста, зарегистрироруйтесь.

У Вас отключен VIP статус, поэтому Вам показывается реклама на сайте. Вы можете поддержать наш ресурс и приобрести VIP статус, тем самым отключив показ рекламы на сайте, а ещё VIP пользователи получают возможность

смотреть фильмы, сериалы и аниме онлайн в HD качестве

(не распространяется на раздел Flarrow Films), а так же получить 5 инвайтов, которыми можно поделиться с друзьями или знакомыми.
[Профиль] [ЛС]
Показать сообщения:    
Ответить на тему

Текущее время: 06-Мар 15:21

Часовой пояс: UTC + 4



Вы не можете начинать темы
Вы не можете отвечать на сообщения
Вы не можете редактировать свои сообщения
Вы не можете удалять свои сообщения
Вы не можете голосовать в опросах
Вы не можете прикреплять файлы к сообщениям
Вы можете скачивать файлы
Анализ сайта korsars.pro Яндекс.Метрика