Энола Холмс / Enola Holmes (2020) WEB-DL 1080p | Flarrow Films

Ответить на тему
Статистика раздачи [Обновить пиров]
Размер:  4,88 GB   |    Зарегистрирован:  5 месяцев 11 дней   |    .torrent скачан:  4 раза
Раздают:  164  [  0 KB/s  ]   Качают:  15  [  0 KB/s  ]   Подробная статистика пиров
 
   
 
 
Автор Сообщение

flarrowfilms ®

Оффлайн

Медали
VIPДруг трекераСупер Мега Контер Квейк


Пол: Не указан

Стаж: 11 месяцев 12 дней

Наличие запрета:

Сообщений: 71

Отдача: 5 Mb/s

Загрузка: 5 Mb/s

Нажми


Скачать Adguard бесплатно

Создавать темы 24-Сен-2020 22:33

[Цитировать]

Информация о фильме
Название: Энола Холмс
Оригинальное название: Enola Holmes
Год выхода: 2020
Жанр: драма, криминал, детектив
Режиссер: Гарри Брэдбир
В ролях: Милли Бобби Браун, Генри Кавилл, Сэм Клафлин, Хелена Бонем Картер, Фиона Шоу, Адиль Ахтар, Фрэнсис де ла Тур, Луис Патридж, Сьюзан Уокома, Берн Горман
О фильме:
У 16-летней Энолы Холмс исчезает мать. Она просит помощи у старших братьев Майкрофта и Шерлока, но они воспринимают исчезновение как нечто незначительное. Энола сбегает из дома в Лондон, где натыкается на инспектора Лестрейда и подключается к поискам пропавшего молодого виконта.

Страна: Великобритания
Продолжительность: 02:03:55
Перевод: Профессиональный (многоголосый, закадровый) | Flarrow Films
Роли озвучивали: Рута Новикова, Ахилл Намазов, Денис Кузьмичёв, Рина Чернышова, Алина Лихачёва и Семён Евсиков
Файл
Формат: MKV
Кодек: MPEG-4 AVC
Качество: WEB-DL 1080p
Видео: 1920х1080, ~ 5 360 kb/s, 24.000 FPS, 8 bits
Звук: AC-3, 320 kb/s, 2 channels, 48.0 kHz
Субтитры: Русские (отключаемые UTF-8)-

MediaInfo

General
Unique ID : 98163568271457196833559154439558556935 (0x49D99D9538B6EA8749C15DFC305C6D07)
Complete name : C:\Flarrow\Enola.Holmes.2020.1080p.Flarrow.Films.mkv
Format : Matroska
Format version : Version 4
File size : 4.88 GiB
Duration : 2 h 3 min
Overall bit rate mode : Variable
Overall bit rate : 5 632 kb/s
Encoded date : UTC 2020-09-24 17:22:58
Writing application : mkvmerge v32.0.0 ('Astral Progressions') 64-bit
Writing library : libebml v1.3.7 + libmatroska v1.5.0
Video
ID : 1
Format : AVC
Format/Info : Advanced Video Codec
Format profile : Main@L4
Format settings : CABAC / 3 Ref Frames
Format settings, CABAC : Yes
Format settings, Reference : 3 frames
Codec ID : V_MPEG4/ISO/AVC
Duration : 2 h 3 min
Bit rate mode : Variable
Bit rate : 5 360 kb/s
Maximum bit rate : 8 040 kb/s
Width : 1 920 pixels
Height : 1 080 pixels
Display aspect ratio : 16:9
Frame rate mode : Constant
Frame rate : 24.000 FPS
Color space : YUV
Chroma subsampling : 4:2:0
Bit depth : 8 bits
Scan type : Progressive
Bits/(Pixel*Frame) : 0.108
Stream size : 4.60 GiB (94%)
Writing library : x264 core 148 r2721 6d200cf
Encoding settings : cabac=1 / ref=3 / deblock=1:0:0 / analyse=0x1:0x111 / me=umh / subme=10 / psy=1 / psy_rd=1.00:0.00 / mixed_ref=1 / me_range=24 / chroma_me=1 / trellis=2 / 8x8dct=0 / cqm=0 / deadzone=21,11 / fast_pskip=1 / chroma_qp_offset=-2 / threads=6 / lookahead_threads=1 / sliced_threads=0 / nr=0 / decimate=1 / interlaced=0 / bluray_compat=0 / stitchable=1 / constrained_intra=0 / bframes=2 / b_pyramid=0 / b_adapt=2 / b_bias=0 / direct=3 / weightb=1 / open_gop=0 / weightp=2 / keyint=250 / keyint_min=24 / scenecut=0 / intra_refresh=0 / rc_lookahead=48 / rc=2pass / mbtree=1 / bitrate=5360 / ratetol=1.0 / qcomp=0.50 / qpmin=6 / qpmax=51 / qpstep=4 / cplxblur=20.0 / qblur=0.5 / vbv_maxrate=8040 / vbv_bufsize=10720 / nal_hrd=vbr / filler=0 / ip_ratio=1.40 / aq=1:1.00
Default : Yes
Forced : No
Audio
ID : 2
Format : AC-3
Format/Info : Audio Coding 3
Commercial name : Dolby Digital
Codec ID : A_AC3
Duration : 2 h 3 min
Bit rate mode : Constant
Bit rate : 320 kb/s
Channel(s) : 2 channels
Channel layout : L R
Sampling rate : 48.0 kHz
Frame rate : 31.250 FPS (1536 SPF)
Compression mode : Lossy
Stream size : 284 MiB (6%)
Language : Russian
Service kind : Complete Main
Default : Yes
Forced : No
Text
ID : 3
Format : UTF-8
Codec ID : S_TEXT/UTF8
Codec ID/Info : UTF-8 Plain Text
Duration : 1 h 57 min
Bit rate : 80 b/s
Count of elements : 1521
Stream size : 69.0 KiB (0%)
Language : Russian
Default : Yes
Forced : No
-
-Релиз от: Flarrow Films
Примечание: Без интро Flarrow Films- -

[korsars.pro].t32178.torrent 
Торрент: Зарегистрирован [ 2020-09-24 22:33 ] · C1BE8AD96627079621E993B8D44A4E7C94B0FDB0

Скачать .torrent

Размер .torrent файла 12 KB

Статус: проверено
.torrent скачан: 4 раз
Размер: 4,88 GB
Правила
Похожие темы

Вы не зарегистрированы на нашем сайте. Вам доступна для скачивания только часть контента. Чтобы увидеть весь контент сайта, пожалуйста, зарегистрироруйтесь.

У Вас отключен VIP статус, поэтому Вам показывается реклама на сайте. Вы можете поддержать наш ресурс и приобрести VIP статус, тем самым отключив показ рекламы на сайте, а ещё VIP пользователи получают возможность

смотреть фильмы, сериалы и аниме онлайн в HD качестве

(не распространяется на раздел Flarrow Films), а так же получить 5 инвайтов, которыми можно поделиться с друзьями или знакомыми.
[Профиль] [ЛС]
Показать сообщения:    
Ответить на тему

Текущее время: 06-Мар 14:12

Часовой пояс: UTC + 4



Вы не можете начинать темы
Вы не можете отвечать на сообщения
Вы не можете редактировать свои сообщения
Вы не можете удалять свои сообщения
Вы не можете голосовать в опросах
Вы не можете прикреплять файлы к сообщениям
Вы можете скачивать файлы
Анализ сайта korsars.pro Яндекс.Метрика