Лего Шазам: Магия и монстры / LEGO DC: Shazam - Magic & Monsters (2020) BDRip 720p от ExKinoRay | Flarrow Films

Ответить на тему
Статистика раздачи [Обновить пиров]
Размер:  2,59 GB   |    Зарегистрирован:  9 месяцев 24 дня   |    .torrent скачан:  7 раз
Раздают:  36  [  0 KB/s  ]   Качают:  2  [  0 KB/s  ]   Подробная статистика пиров
 
   
 
 
Автор Сообщение

4udaki ®

Оффлайн

Медали


Пол: Мужской

Стаж: 6 лет 7 месяцев

Наличие запрета:

Сообщений: 10588

Откуда: korsars.pro

Отдача: 2 Mb/s

Загрузка: 20 Mb/s

Нажми


Скачать Adguard бесплатно

Создавать темы 25-Авг-2020 21:00

[Цитировать]

Название: Лего Шазам: Магия и монстры
Оригинальное название: LEGO DC: Shazam - Magic & Monsters
Год выхода: 2020
Жанр: мультфильм, фантастика, фэнтези, боевик, комедия, приключения, семейный
Режиссер: Мэтт Питерс
В ролях: Джонни Рис, Шон Эстин, Ди Брэдли Бейкер, Трой Бэйкер, Зак Каллисон, Ральф Гармен, Грэй Гриффин, Дженнифер Хейл, Том Кенни, Кристина Милиция
О фильме:
Мальчику супергерою Шазаму предлагают присоединиться к Лиге Справедливости, и поначалу он сомневается. Но когда враждебное Лиге Общество Монстров наносит удар, лишь Шазам может спасти своих новых друзей.


Страна: США
Продолжительность: 01:21:21
Перевод: Профессиональный (многоголосый, закадровый) | Flarrow Films
Формат: MKV
Качество: BDRip 720p
Видео: MPEG-4 AVC, 1280x720 (16:9), 23.976 fps, 3640 Kbps, 0.165 bit/pixel
Аудио #01: 48 kHz, AC3, 2.0, 192 Kbps | MVO | RUS |
Аудио #02: 48 kHz, AC3, 5.1, 640 Kbps | Оригинал | ENG |
Субтитры: Английские

ОтчетМедиаИнфо

General
Unique ID : 248698240565878811175850091478095319797 (0xBB1989F2DFEFDEFE82D3C223EAB152F5)
Complete name : F:Lego.DC.Shazam.magic.and.monsters.2020.MVO.BDRip.720p.ExKinoRay.mkv
Format : Matroska
Format version : Version 2
File size : 2.59 GiB
Duration : 1 h 21 min
Overall bit rate : 4 563 kb/s
Movie name : Lego DC Shazam Magic and Monsters 2020 from ExKinoRay
Encoded date : UTC 2020-06-09 04:08:14
Writing application : mkvmerge v5.6.0 ('Kenya Kane') built on May 27 2012 16:44:04
Writing library : libebml v1.2.3 + libmatroska v1.3.0
Attachments : poster.jpg
Video
ID : 1
Format : AVC
Format/Info : Advanced Video Codec
Format profile : High@L4.1
Format settings, CABAC : Yes
Format settings, ReFrames : 9 frames
Codec ID : V_MPEG4/ISO/AVC
Duration : 1 h 21 min
Bit rate : 3 640 kb/s
Width : 1 280 pixels
Height : 720 pixels
Display aspect ratio : 16:9
Frame rate mode : Constant
Frame rate : 23.976 (24000/1001) FPS
Color space : YUV
Chroma subsampling : 4:2:0
Bit depth : 8 bits
Scan type : Progressive
Bits/(Pixel*Frame) : 0.165
Stream size : 2.07 GiB (80%)
Writing library : x264 core 160 r3000 33f9e14
Encoding settings : cabac=1 / ref=9 / deblock=1:1:1 / analyse=0x3:0x133 / me=umh / subme=10 / psy=1 / psy_rd=1.00:0.00 / mixed_ref=1 / me_range=32 / chroma_me=1 / trellis=2 / 8x8dct=1 / cqm=0 / deadzone=21,11 / fast_pskip=0 / chroma_qp_offset=-2 / threads=12 / lookahead_threads=2 / sliced_threads=0 / nr=0 / decimate=0 / interlaced=0 / bluray_compat=0 / constrained_intra=0 / bframes=8 / b_pyramid=2 / b_adapt=2 / b_bias=0 / direct=3 / weightb=1 / open_gop=0 / weightp=2 / keyint=250 / keyint_min=23 / scenecut=40 / intra_refresh=0 / rc=crf / mbtree=0 / crf=17.0 / qcomp=0.60 / qpmin=0 / qpmax=69 / qpstep=4 / ip_ratio=1.35 / pb_ratio=1.25 / aq=3:0.90
Default : Yes
Forced : No
Audio #1
ID : 2
Format : AC-3
Format/Info : Audio Coding 3
Mode extension : CM (complete main)
Format settings, Endianness : Big
Codec ID : A_AC3
Duration : 1 h 21 min
Bit rate mode : Constant
Bit rate : 192 kb/s
Channel(s) : 2 channels
Channel positions : Front: L R
Sampling rate : 48.0 kHz
Frame rate : 31.250 FPS (1536 spf)
Compression mode : Lossy
Stream size : 112 MiB (4%)
Title : MVO (Flarrow Films)
Language : Russian
Default : Yes
Forced : No
Audio #2
ID : 3
Format : AC-3
Format/Info : Audio Coding 3
Mode extension : CM (complete main)
Format settings, Endianness : Big
Codec ID : A_AC3
Duration : 1 h 21 min
Bit rate mode : Constant
Bit rate : 640 kb/s
Channel(s) : 6 channels
Channel positions : Front: L C R, Side: L R, LFE
Sampling rate : 48.0 kHz
Frame rate : 31.250 FPS (1536 spf)
Compression mode : Lossy
Stream size : 372 MiB (14%)
Title : English
Language : English
Default : No
Forced : No
Text
ID : 4
Format : UTF-8
Codec ID : S_TEXT/UTF8
Codec ID/Info : UTF-8 Plain Text
Language : English
Default : No
Forced : No
Menu
00:00:00.000 : en:Chapter 01
00:08:35.890 : en:Chapter 02
00:17:30.383 : en:Chapter 03
00:27:37.823 : en:Chapter 04
00:36:30.688 : en:Chapter 05
00:44:25.204 : en:Chapter 06
00:51:21.453 : en:Chapter 07
00:57:24.232 : en:Chapter 08
01:04:08.720 : en:Chapter 09
01:13:58.017 : en:Chapter 10
01:18:54.188 : en:Chapter 11
--Релиз от:
[korsars.pro].t31411.torrent 
Торрент: Зарегистрирован [ 2020-08-25 21:00 ] · 97C22B09B45F6742F2D6CFBFB96277F7EEDE9501

Скачать .torrent

Размер .torrent файла 14 KB

Статус: проверено
.torrent скачан: 7 раз
Размер: 2,59 GB
Правила
Похожие темы

Вы не зарегистрированы на нашем сайте. Вам доступна для скачивания только часть контента. Чтобы увидеть весь контент сайта, пожалуйста, зарегистрироруйтесь.

Дешевый и быстрый Сидбокс

Ключи и пин-коды

Игры, Кредитные карты, IP-телефония, Интернет провайдеры, Мобильная связь, Спутниковое ТВ

Электронные книги

Бизнес и экономика, Дом, быт, семья, досуг, Санкт-Петербург, Компьютеры и интернет, Наука и образование, Техническая литература, Юридическая литература

Цифровые товары

iTunes & App Store, Базы данных, Дизайн, Доступ к ресурсам, Kарты продления, ключи, Фотографии, Шаблоны для сайтов

Программное обеспечение

Безопасность, Игры, PC, Интернет, Мобильная связь, Программирование, Продвижение сайтов (SEO), Утилиты
У Вас отключен VIP статус, поэтому Вам показывается реклама на сайте. Вы можете поддержать наш ресурс и приобрести VIP статус, тем самым отключив показ рекламы на сайте, а ещё VIP пользователи получают возможность

смотреть аниме онлайн в HD качестве

(не распространяется на раздел Flarrow Films), а так же получить 5 инвайтов, которыми можно поделиться с друзьями или знакомыми.
Дешевый и быстрый Сидбокс

Ключи и пин-коды

Игры, Кредитные карты, IP-телефония, Интернет провайдеры, Мобильная связь, Спутниковое ТВ

Электронные книги

Бизнес и экономика, Дом, быт, семья, досуг, Санкт-Петербург, Компьютеры и интернет, Наука и образование, Техническая литература, Юридическая литература

Цифровые товары

iTunes & App Store, Базы данных, Дизайн, Доступ к ресурсам, Kарты продления, ключи, Фотографии, Шаблоны для сайтов

Программное обеспечение

Безопасность, Игры, PC, Интернет, Мобильная связь, Программирование, Продвижение сайтов (SEO), Утилиты
[Профиль] [ЛС]
Показать сообщения:    
Ответить на тему

Текущее время: 19-Июн 18:28

Часовой пояс: UTC + 4



Вы не можете начинать темы
Вы не можете отвечать на сообщения
Вы не можете редактировать свои сообщения
Вы не можете удалять свои сообщения
Вы не можете голосовать в опросах
Вы не можете прикреплять файлы к сообщениям
Вы можете скачивать файлы
Анализ сайта korsars.pro Яндекс.Метрика