Короткометражка Marvel: Образец 47 / Marvel One-Shot: Item 47 (2012) BDRemux 1080p | D | Flarrow Films

Ответить на тему
Статистика раздачи [Обновить пиров]
Размер:  801 MB   |    Зарегистрирован:  8 месяцев 27 дней   |    .torrent скачан:  15 раз
Раздают:  45  [  0 KB/s  ]   Качают:  5  [  0 KB/s  ]   Подробная статистика пиров
 
   
 
 
Автор Сообщение

flarrowfilms ®

Оффлайн

Медали
VIPДруг трекераСупер Мега Контер Квейк


Пол: Не указан

Стаж: 1 год 1 месяц

Наличие запрета:

Сообщений: 80

Отдача: 5 Mb/s

Загрузка: 5 Mb/s

Нажми


Скачать Adguard бесплатно

Создавать темы 12-Авг-2020 22:16

[Цитировать]

Информация о фильме
Название: Короткометражка Marvel: Образец 47
Оригинальное название: Marvel One-Shot: Item 47
Год выхода: 2012
Жанр: короткометражка, фантастика, боевик
Режиссер: Луис Д’Эспозито
В ролях: Лиззи Каплан, Джесси Брэдфорд, Максимилиано Эрнандес, Титус Уэлливер, Нэйтан Дин Снайдер
О фильме:
Пара нашла оружие Читаури, которое не заметили соответствующие службы после боя Мстителей с вторженцами. Они решают применить его, с чем вынуждены теперь бороться два агента Щ.И.Т.а.

Страна: США
Продолжительность: 00:11:20
Перевод: Дублированный (профессиональный) | Flarrow Films
Роли озвучивали: Андрей Маслов, Лена Лунина, Ахилл Намазов и Михаил Федосеев
Файл
Формат: MKV
Кодек: MPEG-4 AVC
Качество: BDRemux 1080p (локализованный видеоряд)
Видео: 1920х804, ~ 14.0 Mb/s, 23.976 FPS, 8 bits
Звук: AC-3, 320 kb/s, 2 channels, 48.0 kHz
Субтитры: русские (отключаемые UTF-8)-

MediaInfo

General
Unique ID : 78710688557508727970454118931178923361 (0x3B3720906AAEA7E7A610229EC7FB2561)
Complete name : C:\Flarrow\Marvel.One-Shot.Item.47.1080p.D.Flarrow.Films.mkv
Format : Matroska
Format version : Version 4
File size : 801 MiB
Duration : 11 min 20 s
Overall bit rate mode : Variable
Overall bit rate : 9 871 kb/s
Encoded date : UTC 2020-08-12 16:38:57
Writing application : mkvmerge v32.0.0 ('Astral Progressions') 64-bit
Writing library : libebml v1.3.7 + libmatroska v1.5.0
Video
ID : 1
Format : AVC
Format/Info : Advanced Video Codec
Format profile : Main@L4.1
Format settings : CABAC / 2 Ref Frames
Format settings, CABAC : Yes
Format settings, Reference : 2 frames
Format settings, GOP : M=3, N=23
Codec ID : V_MPEG4/ISO/AVC
Duration : 11 min 20 s
Bit rate mode : Variable
Bit rate : 9 549 kb/s
Maximum bit rate : 14.0 Mb/s
Width : 1 920 pixels
Height : 804 pixels
Display aspect ratio : 2.40:1
Frame rate mode : Constant
Frame rate : 23.976 (24000/1001) FPS
Color space : YUV
Chroma subsampling : 4:2:0
Bit depth : 8 bits
Scan type : Progressive
Bits/(Pixel*Frame) : 0.258
Stream size : 775 MiB (97%)
Language : English
Default : Yes
Forced : No
Audio
ID : 2
Format : AC-3
Format/Info : Audio Coding 3
Commercial name : Dolby Digital
Codec ID : A_AC3
Duration : 11 min 20 s
Bit rate mode : Constant
Bit rate : 320 kb/s
Channel(s) : 2 channels
Channel layout : L R
Sampling rate : 48.0 kHz
Frame rate : 31.250 FPS (1536 SPF)
Compression mode : Lossy
Stream size : 26.0 MiB (3%)
Language : Russian
Service kind : Complete Main
Default : Yes
Forced : No
Text
ID : 3
Format : UTF-8
Codec ID : S_TEXT/UTF8
Codec ID/Info : UTF-8 Plain Text
Duration : 8 min 5 s
Bit rate : 91 b/s
Count of elements : 127
Stream size : 5.43 KiB (0%)
Language : Russian
Default : Yes
Forced : No
--Релиз от: Flarrow Films
Примечание: Без интро Flarrow Films- -
[korsars.pro].t31082.torrent 
Торрент: Зарегистрирован [ 2020-08-12 22:16 ] · 3CF6D74105B744F49EEB565DBD483172DC782A55

Скачать .torrent

Размер .torrent файла 16 KB

Статус: проверено
.torrent скачан: 15 раз
Размер: 801 MB
Правила
Похожие темы

Вы не зарегистрированы на нашем сайте. Вам доступна для скачивания только часть контента. Чтобы увидеть весь контент сайта, пожалуйста, зарегистрироруйтесь.

У Вас отключен VIP статус, поэтому Вам показывается реклама на сайте. Вы можете поддержать наш ресурс и приобрести VIP статус, тем самым отключив показ рекламы на сайте, а ещё VIP пользователи получают возможность

смотреть аниме онлайн в HD качестве

(не распространяется на раздел Flarrow Films), а так же получить 5 инвайтов, которыми можно поделиться с друзьями или знакомыми.
[Профиль] [ЛС]
Показать сообщения:    
Ответить на тему

Текущее время: 09-Май 08:15

Часовой пояс: UTC + 4



Вы не можете начинать темы
Вы не можете отвечать на сообщения
Вы не можете редактировать свои сообщения
Вы не можете удалять свои сообщения
Вы не можете голосовать в опросах
Вы не можете прикреплять файлы к сообщениям
Вы можете скачивать файлы
Анализ сайта korsars.pro Яндекс.Метрика