Зеленый Фонарь: Первый полет / Green Lantern: First Flight (2009) BDRip 1080p | Flarrow Films

Ответить на тему
Статистика раздачи [Обновить пиров]
Размер:  4,2 GB   |    Зарегистрирован:  1 год 2 месяца   |    .torrent скачан:  17 раз
Раздают:  8  [  0 KB/s  ]   Качают:  5  [  0 KB/s  ]   Подробная статистика пиров
 
   
 
 
Автор Сообщение

flarrowfilms ®

Оффлайн

Медали
VIPДруг трекераСупер Мега Контер Квейк


Пол: Не указан

Стаж: 1 год 6 месяцев

Наличие запрета:

Сообщений: 100

Отдача: 5 Mb/s

Загрузка: 5 Mb/s

Нажми


Скачать Adguard бесплатно

Создавать темы 06-Авг-2020 19:00

[Цитировать]

Информация о фильме
Название: Зеленый Фонарь: Первый полет
Оригинальное название: Green Lantern: First Flight
Год выхода: 2009
Жанр: мультфильм, фантастика, фэнтези, боевик, приключения
Режиссер: Лорен Монтгомери
В ролях: Кристофер Мелони, Виктор Гарбер, Триша Хелфер, Майкл Мэдсен, Джон Ларрокетт, Кертвуд Смит, Ларри Дрэйк, Уильям Шэллерт, Малачи Трон, Оливия д’Або
О фильме:
Летчик-испытатель Хэл Джордан находит себе работу в качестве нового члена межгалактической полиции, Зеленый Фонарь - одна из самых элитных подразделений героев. Эти герои патрулируют вселенную, чтобы охранять мир и вершить правосудие над злодеями. Неуверенные в новичке, «Опекуны» назначают Хэлу задания для его обучения. Однако сами «Опекуны» не подозревают, что Синестро планирует свергнуть их и создать новую организацию, которой он будет управлять. Это - сражение силы и могущества, должно доказать, что Хэл Джордан способен свергнуть мятежника и спасти Зеленый цвет «Корпуса Фонаря».

Страна: США
Продолжительность: 01:17:36
Перевод: Профессиональный (многоголосый, закадровый) | Flarrow Films
Роли озвучивали: Виталий Кашеваров, Алексей Ядренников, Денис Кузьмичёв, Дмитрий Бугаков, Алина Лихачёва, Лена Лунина и Семён Евсиков
Файл
Формат: MKV
Кодек: MPEG-4 AVC
Качество: BDRip 1080p
Видео: 1920х800, ~ 7 425 kb/s, 23.976 FPS, 8 bits
Звук: AC-3, 320 kb/s, 2 channels, 48.0 kHz
Субтитры: Отсутствуют-

MediaInfo

General
Unique ID : 248504463233407159781772234971531020030 (0xBAF437FD1593142A4F7BFAAC49B186FE)
Complete name : C:\Flarrow\Green.Lantern.First.Flight.2009.1080.Flarrow.Films.mkv
Format : Matroska
Format version : Version 4
File size : 4.20 GiB
Duration : 1 h 17 min
Overall bit rate : 7 744 kb/s
Encoded date : UTC 2020-08-06 11:55:19
Writing application : mkvmerge v32.0.0 ('Astral Progressions') 64-bit
Writing library : libebml v1.3.7 + libmatroska v1.5.0
Video
ID : 1
Format : AVC
Format/Info : Advanced Video Codec
Format profile : High@L4
Format settings : CABAC / 4 Ref Frames
Format settings, CABAC : Yes
Format settings, Reference : 4 frames
Codec ID : V_MPEG4/ISO/AVC
Duration : 1 h 17 min
Bit rate : 7 425 kb/s
Width : 1 920 pixels
Height : 1 080 pixels
Display aspect ratio : 16:9
Frame rate mode : Constant
Frame rate : 23.976 (24000/1001) FPS
Color space : YUV
Chroma subsampling : 4:2:0
Bit depth : 8 bits
Scan type : Progressive
Bits/(Pixel*Frame) : 0.149
Stream size : 4.02 GiB (96%)
Writing library : x264 core 68 r1193 0538c56
Encoding settings : cabac=1 / ref=4 / deblock=1:0:0 / analyse=0x3:0x113 / me=umh / subme=7 / psy_rd=1.0:0.0 / mixed_ref=1 / me_range=16 / chroma_me=1 / trellis=1 / 8x8dct=1 / cqm=0 / deadzone=21,11 / chroma_qp_offset=-2 / threads=12 / nr=0 / decimate=1 / mbaff=0 / bframes=3 / b_pyramid=1 / b_adapt=1 / b_bias=0 / direct=1 / wpredb=1 / keyint=250 / keyint_min=25 / scenecut=40 / rc=2pass / bitrate=7425 / ratetol=1.0 / qcomp=0.60 / qpmin=10 / qpmax=51 / qpstep=4 / cplxblur=20.0 / qblur=0.5 / ip_ratio=1.40 / pb_ratio=1.30 / aq=1:1.00
Language : English
Default : Yes
Forced : No
Audio
ID : 2
Format : AC-3
Format/Info : Audio Coding 3
Commercial name : Dolby Digital
Codec ID : A_AC3
Duration : 1 h 17 min
Bit rate mode : Constant
Bit rate : 320 kb/s
Channel(s) : 2 channels
Channel layout : L R
Sampling rate : 48.0 kHz
Frame rate : 31.250 FPS (1536 SPF)
Compression mode : Lossy
Stream size : 178 MiB (4%)
Service kind : Complete Main
Default : Yes
Forced : No
--Релиз от: Flarrow Films
Примечание: Без интро Flarrow Films- -
[korsars.pro].t30908.torrent 
Торрент: Зарегистрирован [ 2020-08-06 19:00 ] · 413A07D533FCAE4413CD026499C6B52AE60B6099

Скачать .torrent

Размер .torrent файла 11 KB

Статус: проверено
.torrent скачан: 17 раз
Размер: 4,2 GB
Правила
Похожие темы

Вы не зарегистрированы на нашем сайте. Вам доступна для скачивания только часть контента. Чтобы увидеть весь контент сайта, пожалуйста, зарегистрироруйтесь.

Дешевый и быстрый Сидбокс

Ключи и пин-коды

Игры, Кредитные карты, IP-телефония, Интернет провайдеры, Мобильная связь, Спутниковое ТВ

Электронные книги

Бизнес и экономика, Дом, быт, семья, досуг, Санкт-Петербург, Компьютеры и интернет, Наука и образование, Техническая литература, Юридическая литература

Цифровые товары

iTunes & App Store, Базы данных, Дизайн, Доступ к ресурсам, Kарты продления, ключи, Фотографии, Шаблоны для сайтов

Программное обеспечение

Безопасность, Игры, PC, Интернет, Мобильная связь, Программирование, Продвижение сайтов (SEO), Утилиты
У Вас отключен VIP статус, поэтому Вам показывается реклама на сайте. Вы можете поддержать наш ресурс и приобрести VIP статус, тем самым отключив показ рекламы на сайте, а ещё VIP пользователи получают возможность

смотреть аниме онлайн в HD качестве

(не распространяется на раздел Flarrow Films), а так же получить 5 инвайтов, которыми можно поделиться с друзьями или знакомыми.
Дешевый и быстрый Сидбокс

Ключи и пин-коды

Игры, Кредитные карты, IP-телефония, Интернет провайдеры, Мобильная связь, Спутниковое ТВ

Электронные книги

Бизнес и экономика, Дом, быт, семья, досуг, Санкт-Петербург, Компьютеры и интернет, Наука и образование, Техническая литература, Юридическая литература

Цифровые товары

iTunes & App Store, Базы данных, Дизайн, Доступ к ресурсам, Kарты продления, ключи, Фотографии, Шаблоны для сайтов

Программное обеспечение

Безопасность, Игры, PC, Интернет, Мобильная связь, Программирование, Продвижение сайтов (SEO), Утилиты
[Профиль] [ЛС]
Показать сообщения:    
Ответить на тему

Текущее время: 23-Окт 18:26

Часовой пояс: UTC + 4



Вы не можете начинать темы
Вы не можете отвечать на сообщения
Вы не можете редактировать свои сообщения
Вы не можете удалять свои сообщения
Вы не можете голосовать в опросах
Вы не можете прикреплять файлы к сообщениям
Вы можете скачивать файлы
Анализ сайта korsars.pro Яндекс.Метрика