Лига Справедливости: Кризис двух Миров / Justice League: Crisis on Two Earths (2010) BDRip 1080p | Flarrow Films

Ответить на тему
Статистика раздачи [Обновить пиров]
Размер:  4,21 GB   |    Зарегистрирован:  7 месяцев 5 дней   |    .torrent скачан:  5 раз
Раздают:  18  [  0 KB/s  ]   Качают:  5  [  0 KB/s  ]   Подробная статистика пиров
 
   
 
 
Автор Сообщение

flarrowfilms ®

Оффлайн

Медали
VIPДруг трекераСупер Мега Контер Квейк


Пол: Не указан

Стаж: 11 месяцев 9 дней

Наличие запрета:

Сообщений: 71

Отдача: 5 Mb/s

Загрузка: 5 Mb/s

Нажми


Скачать Adguard бесплатно

Создавать темы 28-Июл-2020 21:27

[Цитировать]

Информация о фильме
Название: Лига Справедливости: Кризис двух Миров
Оригинальное название: Justice League: Crisis on Two Earths
Год выхода: 2010
Жанр: мультфильм, фантастика, боевик
Режиссер: Сэм Лью, Лоурен Монтгомери
В ролях: Марк Хэрмон, Джеймс Вудс, Крис Нот, Уильям Болдуин, Джина Торрес, Роберт Инглунд, Кевин Майкл Ричардсон, Брюс Дэвисон, Джошуа Китон, Чарльз Адлер
О фильме:
Лекс Лютор является из параллельного мира, чтобы нанять Лигу Справедливости для борьбы с Криминальным Синдикатом. Противостояние добра и зла приводит обе Земли на край гибели. Рискованный план спасения, похоже, единственный шанс выжить.

Страна: США
Продолжительность: 01:15:21
Перевод: Профессиональный (многоголосый, закадровый) | Flarrow Films
Роли озвучивали: Антон Алёхин, Ахилл Намазов, Анастасия Скачкова, Алина Лихачёва, Виталий Кашеваров, Дмитрий Савкин, Денис Кузьмичёв, Данила Глухов, Дмитрий Мальков, Антон Макаров и Алексей Ядренников
Файл
Формат: MKV
Кодек: MPEG-4 AVC
Качество: BDRip 1080p
Видео: 1920х1080, ~ 7 671 kb/s, 23.976 FPS, 8 bits
Звук: AC-3, 320 kb/s, 2 channels, 48.0 kHz
Субтитры: Отсутствуют-

MediaInfo

General
Unique ID : 172965702041248551096199179302460826495 (0x821FFB848D18721E2127AC88C1A9A37F)
Complete name : C:\Flarrow\Justice.League.Crisis.on.Two.Earths.1080.Flarrow.Films.mkv
Format : Matroska
Format version : Version 4
File size : 4.21 GiB
Duration : 1 h 15 min
Overall bit rate : 7 992 kb/s
Encoded date : UTC 2020-07-28 14:43:36
Writing application : mkvmerge v32.0.0 ('Astral Progressions') 64-bit
Writing library : libebml v1.3.7 + libmatroska v1.5.0
Video
ID : 1
Format : AVC
Format/Info : Advanced Video Codec
Format profile : High@L4.1
Format settings : CABAC / 4 Ref Frames
Format settings, CABAC : Yes
Format settings, Reference : 4 frames
Codec ID : V_MPEG4/ISO/AVC
Duration : 1 h 15 min
Bit rate : 7 671 kb/s
Width : 1 920 pixels
Height : 1 080 pixels
Display aspect ratio : 16:9
Frame rate mode : Constant
Frame rate : 23.976 (24000/1001) FPS
Color space : YUV
Chroma subsampling : 4:2:0
Bit depth : 8 bits
Scan type : Progressive
Bits/(Pixel*Frame) : 0.154
Stream size : 4.04 GiB (96%)
Writing library : x264 core 88 r1471 1144615
Encoding settings : cabac=1 / ref=4 / deblock=1:0:0 / analyse=0x3:0x133 / me=umh / subme=8 / psy=1 / psy_rd=1.00:0.00 / mixed_ref=1 / me_range=16 / chroma_me=1 / trellis=1 / 8x8dct=1 / cqm=0 / deadzone=21,11 / fast_pskip=0 / chroma_qp_offset=-2 / threads=12 / sliced_threads=0 / nr=0 / decimate=1 / mbaff=0 / constrained_intra=0 / bframes=3 / b_pyramid=2 / b_adapt=1 / b_bias=0 / direct=1 / wpredb=1 / wpredp=2 / keyint=240 / keyint_min=24 / scenecut=40 / intra_refresh=0 / rc_lookahead=40 / rc=2pass / mbtree=1 / bitrate=7671 / ratetol=1.0 / qcomp=0.60 / qpmin=10 / qpmax=51 / qpstep=4 / cplxblur=20.0 / qblur=0.5 / ip_ratio=1.40 / aq=1:1.00
Language : English
Default : No
Forced : No
Audio
ID : 2
Format : AC-3
Format/Info : Audio Coding 3
Commercial name : Dolby Digital
Codec ID : A_AC3
Duration : 1 h 15 min
Bit rate mode : Constant
Bit rate : 320 kb/s
Channel(s) : 2 channels
Channel layout : L R
Sampling rate : 48.0 kHz
Frame rate : 31.250 FPS (1536 SPF)
Compression mode : Lossy
Stream size : 173 MiB (4%)
Service kind : Complete Main
Default : Yes
Forced : No
--Релиз от: Flarrow Films
Примечание: Без интро Flarrow Films- -

[korsars.pro].t30674.torrent 
Торрент: Зарегистрирован [ 2020-07-28 21:27 ] · 3C00B6E032459C01964B59DBC03318C0B6961592

Скачать .torrent

Размер .torrent файла 11 KB

Статус: проверено
.torrent скачан: 5 раз
Размер: 4,21 GB
Правила
Похожие темы

Вы не зарегистрированы на нашем сайте. Вам доступна для скачивания только часть контента. Чтобы увидеть весь контент сайта, пожалуйста, зарегистрироруйтесь.

У Вас отключен VIP статус, поэтому Вам показывается реклама на сайте. Вы можете поддержать наш ресурс и приобрести VIP статус, тем самым отключив показ рекламы на сайте, а ещё VIP пользователи получают возможность

смотреть фильмы, сериалы и аниме онлайн в HD качестве

(не распространяется на раздел Flarrow Films), а так же получить 5 инвайтов, которыми можно поделиться с друзьями или знакомыми.
[Профиль] [ЛС]
Показать сообщения:    
Ответить на тему

Текущее время: 02-Мар 23:53

Часовой пояс: UTC + 4



Вы не можете начинать темы
Вы не можете отвечать на сообщения
Вы не можете редактировать свои сообщения
Вы не можете удалять свои сообщения
Вы не можете голосовать в опросах
Вы не можете прикреплять файлы к сообщениям
Вы можете скачивать файлы
Анализ сайта korsars.pro Яндекс.Метрика