Сквозь слёзы я притворяюсь кошкой / Nakitai Watashi wa Neko wo Kaburu (2020) WEBRip 1080p | Flarrow Films

Ответить на тему
Статистика раздачи [Обновить пиров]
Размер:  2,42 GB   |    Зарегистрирован:  10 месяцев 1 день   |    .torrent скачан:  24 раза
Раздают:  114  [  0 KB/s  ]   Качают:  13  [  0 KB/s  ]   Подробная статистика пиров
 
   
 
 
Автор Сообщение

flarrowfilms ®

Оффлайн

Медали
VIPДруг трекераСупер Мега Контер Квейк


Пол: Не указан

Стаж: 1 год 1 месяц

Наличие запрета:

Сообщений: 80

Отдача: 5 Mb/s

Загрузка: 5 Mb/s

Нажми


Скачать Adguard бесплатно

Создавать темы 07-Июл-2020 19:55

[Цитировать]

Информация о фильме
Название: Сквозь слёзы я притворяюсь кошкой
Оригинальное название: Nakitai Watashi wa Neko wo Kaburu
Год выхода: 2020
Жанр: аниме, мультфильм, мелодрама, фэнтези, приключения
Режиссер: Дзюнъити Сато, Томотака Сибаяма
В ролях: Мираи Сида, Нацуки Ханаэ, Сусуму Тиба, Аяко Кавасуми, Минако Котобуки, Даисукэ Намикава, Хироаки Оги
О фильме:
На фестивале фейерверков обычная японская старшеклассница Миё, распереживавшись из-за развода родителей и несправедливости мира, только в сердцах пожелала этому миру исчезнуть, как тут же встретила загадочного продавца. Незнакомец подарил девушке волшебную маску, с помощью которой Миё теперь может превращаться в белую кошечку. В таком виде она проводит время с одноклассником Кэнто, ведь он, несмотря на все её знаки внимания в школе, упорно игнорирует девушку. Но тот странный тип с фестиваля преследует Миё и пытается убедить её остаться в кошачьем обличье навсегда.

Страна: Япония
Продолжительность: 01:44:28
Перевод: Профессиональный (многоголосый, закадровый) | Flarrow Films
Роли озвучивали: Лена Лунина, Ахилл Намазов, Денис Кузьмичёв, Ксю Березовая, Рута Новикова, Серёжа Пасякин и Евгений Леонов.
Файл
Формат: MKV
Кодек: MPEG-4 AVC
Качество: WEBRip 1080p
Видео: 1920х1080, ~ 4 515 kb/s, 23.976 FPS, 8 bits
Звук: AC-3, 320 kb/s, 2 channels, 48.0 kHz
Субтитры: русские (отключаемые UTF-8)-

MediaInfo

General
Unique ID : 97301328330743597333487397831847532600 (0x49338DDF239FC12F2C2DB40526C55838)
Complete name : C:\Flarrow\A.Whisker.Away.2020.1080p.mkv
Format : Matroska
Format version : Version 4
File size : 2.42 GiB
Duration : 1 h 44 min
Overall bit rate mode : Variable
Overall bit rate : 3 320 kb/s
Encoded date : UTC 2020-07-07 13:50:00
Writing application : mkvmerge v32.0.0 ('Astral Progressions') 64-bit
Writing library : libebml v1.3.7 + libmatroska v1.5.0
Video
ID : 1
Format : AVC
Format/Info : Advanced Video Codec
Format profile : Main@L4
Format settings : CABAC / 3 Ref Frames
Format settings, CABAC : Yes
Format settings, Reference : 3 frames
Codec ID : V_MPEG4/ISO/AVC
Duration : 1 h 44 min
Bit rate mode : Variable
Bit rate : 3 010 kb/s
Maximum bit rate : 4 515 kb/s
Width : 1 920 pixels
Height : 1 080 pixels
Display aspect ratio : 16:9
Frame rate mode : Constant
Frame rate : 23.976 (24000/1001) FPS
Color space : YUV
Chroma subsampling : 4:2:0
Bit depth : 8 bits
Scan type : Progressive
Bits/(Pixel*Frame) : 0.061
Stream size : 2.19 GiB (90%)
Writing library : x264 core 148 r2717 0d2410d
Encoding settings : cabac=1 / ref=3 / deblock=1:0:0 / analyse=0x1:0x111 / me=umh / subme=10 / psy=1 / psy_rd=1.00:0.00 / mixed_ref=1 / me_range=24 / chroma_me=1 / trellis=2 / 8x8dct=0 / cqm=0 / deadzone=21,11 / fast_pskip=1 / chroma_qp_offset=-2 / threads=8 / lookahead_threads=1 / sliced_threads=0 / nr=0 / decimate=1 / interlaced=0 / bluray_compat=0 / stitchable=1 / constrained_intra=0 / bframes=2 / b_pyramid=0 / b_adapt=2 / b_bias=0 / direct=3 / weightb=1 / open_gop=0 / weightp=2 / keyint=250 / keyint_min=23 / scenecut=0 / intra_refresh=0 / rc_lookahead=48 / rc=2pass / mbtree=1 / bitrate=3010 / ratetol=1.0 / qcomp=0.50 / qpmin=6 / qpmax=51 / qpstep=4 / cplxblur=20.0 / qblur=0.5 / vbv_maxrate=4515 / vbv_bufsize=6020 / nal_hrd=vbr / filler=0 / ip_ratio=1.40 / aq=1:1.00
Default : Yes
Forced : No
Audio
ID : 2
Format : AC-3
Format/Info : Audio Coding 3
Commercial name : Dolby Digital
Codec ID : A_AC3
Duration : 1 h 44 min
Bit rate mode : Constant
Bit rate : 320 kb/s
Channel(s) : 2 channels
Channel layout : L R
Sampling rate : 48.0 kHz
Frame rate : 31.250 FPS (1536 SPF)
Compression mode : Lossy
Stream size : 239 MiB (10%)
Service kind : Complete Main
Default : Yes
Forced : No
Text
ID : 3
Format : UTF-8
Codec ID : S_TEXT/UTF8
Codec ID/Info : UTF-8 Plain Text
Duration : 1 h 44 min
Bit rate : 96 b/s
Count of elements : 1411
Stream size : 73.4 KiB (0%)
Language : Russian
Default : Yes
Forced : No
-
[korsars.pro].t30130.torrent 
Торрент: Зарегистрирован [ 2020-07-07 19:55 ] · CC9A50498EE59796FDFE06AF48923EC8569FFEC2

Скачать .torrent

Размер .torrent файла 12 KB

Статус: проверено
.torrent скачан: 24 раз
Размер: 2,42 GB
Правила
Woitler(08-Июл-20), 4udaki(08-Июл-20), IrishDrinker(08-Июл-20)
Похожие темы

Вы не зарегистрированы на нашем сайте. Вам доступна для скачивания только часть контента. Чтобы увидеть весь контент сайта, пожалуйста, зарегистрироруйтесь.

У Вас отключен VIP статус, поэтому Вам показывается реклама на сайте. Вы можете поддержать наш ресурс и приобрести VIP статус, тем самым отключив показ рекламы на сайте, а ещё VIP пользователи получают возможность

смотреть аниме онлайн в HD качестве

(не распространяется на раздел Flarrow Films), а так же получить 5 инвайтов, которыми можно поделиться с друзьями или знакомыми.
[Профиль] [ЛС]
Показать сообщения:    
Ответить на тему

Текущее время: 09-Май 07:27

Часовой пояс: UTC + 4



Вы не можете начинать темы
Вы не можете отвечать на сообщения
Вы не можете редактировать свои сообщения
Вы не можете удалять свои сообщения
Вы не можете голосовать в опросах
Вы не можете прикреплять файлы к сообщениям
Вы можете скачивать файлы
Анализ сайта korsars.pro Яндекс.Метрика