Артемис Фаул / Artemis Fowl (2020) WEB-DLRip 1080p | Flarrow Films

Ответить на тему
Статистика раздачи [Обновить пиров]
Размер:  5,84 GB   |    Зарегистрирован:  8 месяцев 1 день   |    .torrent скачан:  6 раз
Раздают:  95  [  0 KB/s  ]   Качают:  15  [  0 KB/s  ]   Подробная статистика пиров
 
   
 
 
Автор Сообщение

flarrowfilms ®

Оффлайн

Медали
VIPДруг трекераСупер Мега Контер Квейк


Пол: Не указан

Стаж: 11 месяцев 13 дней

Наличие запрета:

Сообщений: 71

Отдача: 5 Mb/s

Загрузка: 5 Mb/s

Нажми


Скачать Adguard бесплатно

Создавать темы 06-Июл-2020 14:29

[Цитировать]

Информация о фильме
Название: Артемис Фаул
Оригинальное название: Artemis Fowl
Год выхода: 2020
Жанр: фантастика, фэнтези, приключения, семейный
Режиссер: Кеннет Брана
В ролях: Нонсо Анози, Джуди Денч, Grace Molony, Колин Фаррелл, Никеш Пател, Фердия Шоу, Миранда Рэйсон, Эдриан Скарборо, Джош Гад, Хонг Чау
О фильме:
Укрытый от посторонних глаз глубоко под поверхностью земной коры таится целый мир, населенный гномами, эльфами, пикси, лепреконами, брауни и другими волшебными существами. Они спрятались от людей и создали свою цивилизацию. Их тайна так и оставалась бы нераскрытой, если бы не юный Артемис Фаул — прирожденный мошенник и единственный наследник древнего рода криминальных гениев. Он сумел не только найти доказательства существования подземного мира, но и придумал дерзкий план, как ограбить его обитателей.

Страна: США
Продолжительность: 01:34:21
Перевод: Профессиональный (многоголосый, закадровый) | Flarrow Films
Роли озвучивали: Андрей Маслов, Ахилл Намазов, Кирилл Патрино, Лена Лунина, Дмитрий Бугаков, Марина Видякина, Рута Новикова, Дмитрий Кравченко и Семён Евсиков.
Файл
Формат: MKV
Кодек: MPEG-4 AVC
Качество: WEB-DLRip 1080p
Видео: 1920х1080, ~ 8 859 Kb/s, 23.976 FPS, 8 bits
Звук: AC-3, 384 kb/s, 6 channels, 48.0 kHz
Субтитры: Субтитры: русские (вшитые, отключаемые UTF-8)-

MediaInfo

General
Unique ID : 62165226144828639357491962803886298117 (0x2EC496491E38D852ADEC85F5242D1405)
Complete name : C:FlarrowArtemis.Fowl.2020.1080p.Flarrow.Films.mkv
Format : Matroska
Format version : Version 4
File size : 5.84 GiB
Duration : 1 h 34 min
Overall bit rate mode : Variable
Overall bit rate : 8 859 kb/s
Encoded date : UTC 2020-07-04 05:29:59
Writing application : mkvmerge v32.0.0 ('Astral Progressions') 64-bit
Writing library : libebml v1.3.7 + libmatroska v1.5.0
Video
ID : 1
Format : AVC
Format/Info : Advanced Video Codec
Format profile : High@L4
Format settings : CABAC / 4 Ref Frames
Format settings, CABAC : Yes
Format settings, Reference : 4 frames
Codec ID : V_MPEG4/ISO/AVC
Duration : 1 h 34 min
Bit rate mode : Variable
Bit rate : 8 473 kb/s
Maximum bit rate : 12.7 Mb/s
Width : 1 920 pixels
Height : 1 080 pixels
Display aspect ratio : 16:9
Frame rate mode : Constant
Frame rate : 23.976 (24000/1001) FPS
Color space : YUV
Chroma subsampling : 4:2:0
Bit depth : 8 bits
Scan type : Progressive
Bits/(Pixel*Frame) : 0.170
Stream size : 5.58 GiB (96%)
Default : Yes
Forced : No
Color range : Limited
Color primaries : BT.709
Transfer characteristics : BT.709
Matrix coefficients : BT.709
Audio
ID : 2
Format : AC-3
Format/Info : Audio Coding 3
Commercial name : Dolby Digital
Codec ID : A_AC3
Duration : 1 h 34 min
Bit rate mode : Constant
Bit rate : 384 kb/s
Channel(s) : 6 channels
Channel layout : L R C LFE Ls Rs
Sampling rate : 48.0 kHz
Frame rate : 31.250 FPS (1536 SPF)
Compression mode : Lossy
Stream size : 259 MiB (4%)
Service kind : Complete Main
Default : Yes
Forced : No
Text
ID : 3
Format : UTF-8
Codec ID : S_TEXT/UTF8
Codec ID/Info : UTF-8 Plain Text
Duration : 1 h 28 min
Bit rate : 102 b/s
Count of elements : 1513
Stream size : 66.5 KiB (0%)
Language : Russian
Default : Yes
Forced : No
-

[korsars.pro].t30094.torrent 
Торрент: Зарегистрирован [ 2020-07-06 14:29 ] · D5D1C2930E095D01073B83421D080C833F4398E6

Скачать .torrent

Размер .torrent файла 15 KB

Статус: проверено
.torrent скачан: 6 раз
Размер: 5,84 GB
Правила
4udaki(06-Июл-20)
Похожие темы

Вы не зарегистрированы на нашем сайте. Вам доступна для скачивания только часть контента. Чтобы увидеть весь контент сайта, пожалуйста, зарегистрироруйтесь.

У Вас отключен VIP статус, поэтому Вам показывается реклама на сайте. Вы можете поддержать наш ресурс и приобрести VIP статус, тем самым отключив показ рекламы на сайте, а ещё VIP пользователи получают возможность

смотреть фильмы, сериалы и аниме онлайн в HD качестве

(не распространяется на раздел Flarrow Films), а так же получить 5 инвайтов, которыми можно поделиться с друзьями или знакомыми.
[Профиль] [ЛС]
Показать сообщения:    
Ответить на тему

Текущее время: 07-Мар 19:05

Часовой пояс: UTC + 4



Вы не можете начинать темы
Вы не можете отвечать на сообщения
Вы не можете редактировать свои сообщения
Вы не можете удалять свои сообщения
Вы не можете голосовать в опросах
Вы не можете прикреплять файлы к сообщениям
Вы можете скачивать файлы
Анализ сайта korsars.pro Яндекс.Метрика