Фури-кури / FLCL [OVA] (2000-2001) BDRip от Deadmauvlad | D | RinGo

Ответить на тему
Статистика раздачи [Обновить пиров]
Размер:  1,96 GB   |    Зарегистрирован:  1 год 4 месяца   |    .torrent скачан:  5 раз
Раздают:  8  [  0 KB/s  ]   Качают:  6  [  0 KB/s  ]   Подробная статистика пиров
 
   
 
 
Автор Сообщение

4udaki ®

Онлайн

Медали


Пол: Мужской

Стаж: 6 лет 11 месяцев

Наличие запрета:

Сообщений: 11553

Откуда: korsars.pro

Отдача: 2 Mb/s

Загрузка: 20 Mb/s

Нажми


Скачать Adguard бесплатно

Создавать темы 13-Июн-2020 09:00

[Цитировать]

Информация о фильме
Название: Фури-кури
Оригинальное название: FLCL
Выпуск: с 26 апреля 2000 по 16 марта 2001
Жанр: комедия, пародия, фантастика, психоделика
Режиссер: Цурумаки Кадзуя
Автор оригинала: Цурумаки Кадзуя
В главных ролях Дзюн Мидзуки, Маюми Синтани, Идзуми Касаги, Судзуки Мацуо, Хироси Ито, Мика Ито, Кадзухито Судзуки, Сё Миядзима, Кодзи Окура, Тиэми Тиба
Описание: На горе – утюг завода, под горой живет Наота. Наота Нандаба – 12-летний школьник, в жизни которого нет ничего хорошего. Старший брат уехал играть в бейсбол в Америку, отец – великовозрастный отаку, дед – старый извращенец. Мамими – девушка брата, с которой Наота тусуется по вечерам – на редкость странная персона и смотрит на него, как на ребенка. Вот только скучать парню осталось недолго – благодаря веселой Харуко Харухаре, сбивающей Наоту на своей желтой «Веспе». Добавив бедолаге для верности по лбу синей бас-гитарой «Рикенбэкер», Харуко мастерски выполняет искусственное дыхание, а затем, чтобы окончательно добить несчастного, устраивается в холостяцкий дом Нандаба горничной. Вот и пришел конец мирной жизни - городок Мабасэ встает на уши. Из головы персонажей лезут роботы, из космоса – вообще неясно кто, кругом орудуют агенты темных и светлых сил, и все они спокойно общаются с обычными японскими школьниками, помогая решать вечные подростковые проблемы. Фантазия и реальность смешиваются так, что уже не разбираются ни герои, ни зрители. Только зачем разбираться – надо смотреть! Такое надо смотреть…

Страна: Япония
Студия: Gainax
Продолжительность: 06 серий x ~00:25:00
Перевод: Любительский Дублированный от студии RinGo
Возрастное ограничение: 18+
Качество: BDRip [Исходники Blu-Ray Disk's 1080p thx TolstiyMob]
Контейнер: AVI
Кодек: XviD
Видео: 720x528 (4:3), 23.976 fps, 1 508 kb/s (0.165 bit/pixel)
Аудио №1: AC-3, 48,0 КГц, 2 ch, 192 /сек, CBR | | RinGo
Аудио №2: AC-3, 48,0 КГц, 2 ch, 192 /сек, CBR | | Japan (Оригинал)
Субтитры: Русские (Полный Перевод); English (Full)-

Хронология

#1 >>>Фури-кури - OVA (6 эп.), начало цикла, 2000 ✔ (Есть в раздаче)
#2 Фури-кури 2 - ТВ (6 эп.), продолжение, 2018
#3 Фури-кури 3 - п/ф, продолжение, 2018

Эпизоды

1. Fooly Cooly
2. Fire Starter
3. Marquis de Carabas
4. Full Swing
5. Brittle Bullet
6. FLCLimax

MediaInfo

General
Complete name : [Deadmau- RAWS] Фури.кури.OVA.2000.RUS.JAP.BDRip.Deadmauvlad.Серия.01.avi
Format : AVI
Format/Info : Audio Video Interleave
File size : 336 MiB
Duration : 24 min 38 s
Overall bit rate : 1 906 kb/s
Movie name : [Deadmau- RAWS] Фури.кури.OVA.2000.RUS.JAP.BDRip.Deadmauvlad.Серия.01
Director : Encoder by Deadmauvlad
Genre : комедия, пародия, фантастика
Writing application : VirtualDubMod 1.5.10.3 | www.virtualdub-fr.org || (build 2550/release)
Original source form/Name : Аниме
Copyright : Encoder by Deadmauvlad
Comment : Encoder by Deadmauvlad
Video
ID : 0
Format : MPEG-4 Visual
Format profile : Advanced Simple@L5
Format settings : BVOP1 / Custom Matrix
Format settings, BVOP : 1
Format settings, QPel : No
Format settings, GMC : No warppoints
Format settings, Matrix : Custom
Codec ID : XVID
Codec ID/Hint : XviD
Duration : 24 min 38 s
Bit rate : 1 508 kb/s
Width : 720 pixels
Height : 528 pixels
Display aspect ratio : 4:3
Frame rate : 23.976 (24000/1001) FPS
Color space : YUV
Chroma subsampling : 4:2:0
Bit depth : 8 bits
Scan type : Progressive
Compression mode : Lossy
Bits/(Pixel*Frame) : 0.165
Stream size : 266 MiB (79%)
Writing library : XviD 73
Audio #1
ID : 1
Format : AC-3
Format/Info : Audio Coding 3
Commercial name : Dolby Digital
Codec ID : 2000
Duration : 24 min 38 s
Bit rate mode : Constant
Bit rate : 192 kb/s
Channel(s) : 2 channels
Channel layout : L R
Sampling rate : 48.0 kHz
Frame rate : 31.250 FPS (1536 SPF)
Bit depth : 16 bits
Compression mode : Lossy
Stream size : 33.8 MiB (10%)
Alignment : Split accross interleaves
Interleave, duration : 42 ms (1.00 video frame)
Interleave, preload duration : 500 ms
Service kind : Complete Main
Audio #2
ID : 2
Format : AC-3
Format/Info : Audio Coding 3
Commercial name : Dolby Digital
Codec ID : 2000
Duration : 24 min 38 s
Bit rate mode : Constant
Bit rate : 192 kb/s
Channel(s) : 2 channels
Channel layout : L R
Sampling rate : 48.0 kHz
Frame rate : 31.250 FPS (1536 SPF)
Bit depth : 16 bits
Compression mode : Lossy
Stream size : 33.8 MiB (10%)
Alignment : Split accross interleaves
Interleave, duration : 42 ms (1.00 video frame)
Interleave, preload duration : 500 ms
Service kind : Complete Main

Скриншоты

Релиз / Автор рипа: Deadmauvlad ^_^
[korsars.pro].t29498.torrent 
Торрент: Зарегистрирован [ 2020-06-13 09:00 ] · AA8A2A297D3B8821AF9C016AA7C3C4179370BA41

Скачать .torrent

Размер .torrent файла 23 KB

Статус: проверено
.torrent скачан: 5 раз
Размер: 1,96 GB
Правила

Вы не зарегистрированы на нашем сайте. Вам доступна для скачивания только часть контента. Чтобы увидеть весь контент сайта, пожалуйста, зарегистрироруйтесь.

Дешевый и быстрый Сидбокс

Ключи и пин-коды

Игры, Кредитные карты, IP-телефония, Интернет провайдеры, Мобильная связь, Спутниковое ТВ

Электронные книги

Бизнес и экономика, Дом, быт, семья, досуг, Санкт-Петербург, Компьютеры и интернет, Наука и образование, Техническая литература, Юридическая литература

Цифровые товары

iTunes & App Store, Базы данных, Дизайн, Доступ к ресурсам, Kарты продления, ключи, Фотографии, Шаблоны для сайтов

Программное обеспечение

Безопасность, Игры, PC, Интернет, Мобильная связь, Программирование, Продвижение сайтов (SEO), Утилиты
У Вас отключен VIP статус, поэтому Вам показывается реклама на сайте. Вы можете поддержать наш ресурс и приобрести VIP статус, тем самым отключив показ рекламы на сайте, а ещё VIP пользователи получают возможность

смотреть аниме онлайн в HD качестве

(не распространяется на раздел Flarrow Films), а так же получить 5 инвайтов, которыми можно поделиться с друзьями или знакомыми.
Дешевый и быстрый Сидбокс

Ключи и пин-коды

Игры, Кредитные карты, IP-телефония, Интернет провайдеры, Мобильная связь, Спутниковое ТВ

Электронные книги

Бизнес и экономика, Дом, быт, семья, досуг, Санкт-Петербург, Компьютеры и интернет, Наука и образование, Техническая литература, Юридическая литература

Цифровые товары

iTunes & App Store, Базы данных, Дизайн, Доступ к ресурсам, Kарты продления, ключи, Фотографии, Шаблоны для сайтов

Программное обеспечение

Безопасность, Игры, PC, Интернет, Мобильная связь, Программирование, Продвижение сайтов (SEO), Утилиты
[Профиль] [ЛС]
Показать сообщения:    
Ответить на тему

Текущее время: 20-Окт 11:54

Часовой пояс: UTC + 4



Вы не можете начинать темы
Вы не можете отвечать на сообщения
Вы не можете редактировать свои сообщения
Вы не можете удалять свои сообщения
Вы не можете голосовать в опросах
Вы не можете прикреплять файлы к сообщениям
Вы можете скачивать файлы
Анализ сайта korsars.pro Яндекс.Метрика