Счастье продолжается: Фильм-концерт Братьев Джонас / Happiness Continues (2020) WEB-DLRip 1080p | Flarrow Films

Ответить на тему
Статистика раздачи [Обновить пиров]
Размер:  6,43 GB   |    Зарегистрирован:  1 год 5 месяцев   |    .torrent скачан:  16 раз
Раздают:  1  [  0 KB/s  ]   Качают:  3  [  0 KB/s  ]   Подробная статистика пиров
 
   
 
 
 
Автор Сообщение

4udaki ®

Оффлайн

Медали


Пол: Мужской

Стаж: 6 лет 11 месяцев

Наличие запрета:

Сообщений: 11538

Откуда: korsars.pro

Отдача: 2 Mb/s

Загрузка: 20 Mb/s

Нажми


Скачать Adguard бесплатно

Создавать темы 07-Май-2020 19:15

[Цитировать]

-Счастье продолжается: Фильм-концерт Братьев Джонас / Happiness Continues-Год выпуска: 2020
Страна:
США
Жанр: документальный, концерт, музыкальный
Продолжительность: 01:44:36
Перевод: Профессиональный (многоголосый, закадровый) | Flarrow Films
Субтитры: отсутствуют-В ролях: Joe Jonas, Kevin Jonas, Nick Jonas
Режиссёры: Энтони Мэндлер-Рейтинг:
-Описание: Братья Джонас расскажут о своем опыте живого выступления и эксклюзивном взгляде на жизнь, которое получили во время их аншлагового концертного тура "Счастье Начинается" в 2019 году.-Качество: WEB-DLRip 1080p
Формат: MKV (MPEG-4 AVC)
Видео: 1920х1080, ~ 8 481 kb/s, 23.976 FPS, 8 bits
Аудио: AC-3, 320 kb/s, 2 channels, 48.0 kHz-

MediaInfo

General
Unique ID                   : 300478374903182388432366071446140973377 (0xE20E07AD3518B4B177E83A869EE57141)
Complete name               : D:\Downloads\Movies\[KORSARS]_Happiness.Continues.A.Jonas.Brothers.Concert.Film.WEBDLRip.1080p_[Flarrow.Films].mkv
Format                      : Matroska
Format version              : Version 4
File size                   : 6.43 GiB
Duration                    : 1 h 44 min
Overall bit rate mode       : Constant
Overall bit rate            : 8 802 kb/s
Encoded date                : UTC 2020-05-06 12:30:27
Writing application         : mkvmerge v32.0.0 ('Astral Progressions') 64-bit
Writing library             : libebml v1.3.7 + libmatroska v1.5.0
Video
ID                          : 1
Format                      : AVC
Format/Info                 : Advanced Video Codec
Format profile              : High@L4
Format settings             : CABAC / 4 Ref Frames
Format settings, CABAC      : Yes
Format settings, Reference  : 4 frames
Codec ID                    : V_MPEG4/ISO/AVC
Duration                    : 1 h 44 min
Bit rate mode               : Constant
Bit rate                    : 8 481 kb/s
Nominal bit rate            : 10 000 kb/s
Width                       : 1 920 pixels
Height                      : 1 080 pixels
Display aspect ratio        : 16:9
Frame rate mode             : Constant
Frame rate                  : 23.976 (24000/1001) FPS
Color space                 : YUV
Chroma subsampling          : 4:2:0
Bit depth                   : 8 bits
Scan type                   : Progressive
Bits/(Pixel*Frame)          : 0.171
Stream size                 : 6.20 GiB (96%)
Default                     : Yes
Forced                      : No
Color range                 : Limited
Color primaries             : BT.709
Transfer characteristics    : BT.709
Matrix coefficients         : BT.709
Audio
ID                          : 2
Format                      : AC-3
Format/Info                 : Audio Coding 3
Commercial name             : Dolby Digital
Codec ID                    : A_AC3
Duration                    : 1 h 44 min
Bit rate mode               : Constant
Bit rate                    : 320 kb/s
Channel(s)                  : 2 channels
Channel layout              : L R
Sampling rate               : 48.0 kHz
Frame rate                  : 31.250 FPS (1536 SPF)
Compression mode            : Lossy
Stream size                 : 239 MiB (4%)
Service kind                : Complete Main
Default                     : Yes
Forced                      : No
-

Скриншоты

-
[korsars.pro].t28558.torrent 
Торрент: Зарегистрирован [ 2020-05-07 19:15 ] · A661A7BBD4F8F5C319CD239A7A8BBC5FD494FB5F

Скачать .torrent

Размер .torrent файла 16 KB

Статус: проверено
.torrent скачан: 16 раз
Размер: 6,43 GB
Правила
Похожие темы

Вы не зарегистрированы на нашем сайте. Вам доступна для скачивания только часть контента. Чтобы увидеть весь контент сайта, пожалуйста, зарегистрироруйтесь.

Дешевый и быстрый Сидбокс

Ключи и пин-коды

Игры, Кредитные карты, IP-телефония, Интернет провайдеры, Мобильная связь, Спутниковое ТВ

Электронные книги

Бизнес и экономика, Дом, быт, семья, досуг, Санкт-Петербург, Компьютеры и интернет, Наука и образование, Техническая литература, Юридическая литература

Цифровые товары

iTunes & App Store, Базы данных, Дизайн, Доступ к ресурсам, Kарты продления, ключи, Фотографии, Шаблоны для сайтов

Программное обеспечение

Безопасность, Игры, PC, Интернет, Мобильная связь, Программирование, Продвижение сайтов (SEO), Утилиты
У Вас отключен VIP статус, поэтому Вам показывается реклама на сайте. Вы можете поддержать наш ресурс и приобрести VIP статус, тем самым отключив показ рекламы на сайте, а ещё VIP пользователи получают возможность

смотреть аниме онлайн в HD качестве

(не распространяется на раздел Flarrow Films), а так же получить 5 инвайтов, которыми можно поделиться с друзьями или знакомыми.
Дешевый и быстрый Сидбокс

Ключи и пин-коды

Игры, Кредитные карты, IP-телефония, Интернет провайдеры, Мобильная связь, Спутниковое ТВ

Электронные книги

Бизнес и экономика, Дом, быт, семья, досуг, Санкт-Петербург, Компьютеры и интернет, Наука и образование, Техническая литература, Юридическая литература

Цифровые товары

iTunes & App Store, Базы данных, Дизайн, Доступ к ресурсам, Kарты продления, ключи, Фотографии, Шаблоны для сайтов

Программное обеспечение

Безопасность, Игры, PC, Интернет, Мобильная связь, Программирование, Продвижение сайтов (SEO), Утилиты
[Профиль] [ЛС]
Показать сообщения:    
Ответить на тему

Текущее время: 22-Окт 22:08

Часовой пояс: UTC + 4



Вы не можете начинать темы
Вы не можете отвечать на сообщения
Вы не можете редактировать свои сообщения
Вы не можете удалять свои сообщения
Вы не можете голосовать в опросах
Вы не можете прикреплять файлы к сообщениям
Вы можете скачивать файлы
Анализ сайта korsars.pro Яндекс.Метрика