Бродяга Кэнсин / Ruroni Kenshin: Meiji kenkaku roman tan (2012) BDRip 1080p | Flarrow Films

Ответить на тему
Статистика раздачи [Обновить пиров]
Размер:  4,62 GB   |    Зарегистрирован:  1 год 6 месяцев   |    .torrent скачан:  24 раза
Раздают:  28  [  18 KB/s  ]   Качают:  6  [  0 KB/s  ]   Подробная статистика пиров
 
   
 
 
Автор Сообщение

4udaki ®

Оффлайн

Медали


Пол: Мужской

Стаж: 7 лет

Наличие запрета:

Сообщений: 12130

Откуда: korsars.pro

Отдача: 2 Mb/s

Загрузка: 20 Mb/s

Нажми


Скачать Adguard бесплатно

Создавать темы 04-Май-2020 23:12

[Цитировать]

-Бродяга Кэнсин / Ruroni Kenshin: Meiji kenkaku roman tan-Год выпуска: 2012
Страна:
Япония
Жанр: боевик, драма, мелодрама
Продолжительность: 02:14:26
Перевод: Профессиональный (многоголосый, закадровый) | Flarrow Films
Субтитры: отсутствуют-В ролях: Такэру Сато, Ю Аои, Эми Такэи, Го Аяно, Масатака Кубота, Тэруюки Кагава, Ёсукэ Эгути, Мунэтака Аоки, Эйдзи Окуда, Такэто Танака
Режиссёры: Кэиси Отомо-Рейтинг:
-Описание: Чтобы искупить свои грехи, бывший легендарный убийца Кэнсин Химура стал скитальцем-самураем, и теперь предлагает помощь и защиту всем нуждающимся. Во время скитаний Кэнсин встречает Каору Камию. Её отец открыл школу кэндо в Токио, и девушка работает там инструктором. Отношения Кэнсина и Каору начинают развиваться, но Кэнсина по-прежнему преследует его ужасное прошлое.-Качество: BDRip 1080p
Формат: MKV (MPEG-4 AVC)
Видео: 1920х1080, ~ 4 602 kb/s, 23.976 FPS, 8 bits
Аудио: AC-3, 320 kb/s, 2 channels, 48.0 kHz-

MediaInfo

General
Unique ID                   : 70690749216822790546719964649402703854 (0x352E8B06AFDBEFEFE584EBE8B5849FEE)
Complete name               : [KORSARS]_Ruroni.Kenshin.Meiji.kenkaku.roman.tan.BDRip.1080p_[Flarrow.Films].mkv
Format                      : Matroska
Format version              : Version 4
File size                   : 4.62 GiB
Duration                    : 2 h 14 min
Overall bit rate            : 4 923 kb/s
Encoded date                : UTC 2020-05-04 06:44:42
Writing application         : mkvmerge v32.0.0 ('Astral Progressions') 64-bit
Writing library             : libebml v1.3.7 + libmatroska v1.5.0
Video
ID                          : 1
Format                      : AVC
Format/Info                 : Advanced Video Codec
Format profile              : High@L4.1
Format settings             : CABAC / 4 Ref Frames
Format settings, CABAC      : Yes
Format settings, Reference  : 4 frames
Codec ID                    : V_MPEG4/ISO/AVC
Duration                    : 2 h 14 min
Bit rate                    : 4 602 kb/s
Width                       : 1 920 pixels
Height                      : 800 pixels
Display aspect ratio        : 2.40:1
Frame rate mode             : Constant
Frame rate                  : 23.976 (24000/1001) FPS
Color space                 : YUV
Chroma subsampling          : 4:2:0
Bit depth                   : 8 bits
Scan type                   : Progressive
Bits/(Pixel*Frame)          : 0.125
Stream size                 : 4.32 GiB (93%)
Writing library             : x264 core 146 r2538 121396c
Encoding settings           : cabac=1 / ref=4 / deblock=1:1:1 / analyse=0x3:0x113 / me=hex / subme=6 / psy=1 / psy_rd=0.40:0.00 / mixed_ref=1 / me_range=16 / chroma_me=1 / trellis=1 / 8x8dct=1 / cqm=0 / deadzone=21,11 / fast_pskip=1 / chroma_qp_offset=-2 / threads=6 / lookahead_threads=1 / sliced_threads=0 / nr=0 / decimate=1 / interlaced=0 / bluray_compat=0 / constrained_intra=0 / bframes=5 / b_pyramid=2 / b_adapt=1 / b_bias=0 / direct=1 / weightb=1 / open_gop=0 / weightp=1 / keyint=250 / keyint_min=23 / scenecut=40 / intra_refresh=0 / rc_lookahead=30 / rc=crf / mbtree=1 / crf=19.0 / qcomp=0.60 / qpmin=0 / qpmax=69 / qpstep=4 / ip_ratio=1.40 / aq=1:0.60
Default                     : Yes
Forced                      : No
Audio
ID                          : 2
Format                      : AC-3
Format/Info                 : Audio Coding 3
Commercial name             : Dolby Digital
Codec ID                    : A_AC3
Duration                    : 2 h 14 min
Bit rate mode               : Constant
Bit rate                    : 320 kb/s
Channel(s)                  : 2 channels
Channel layout              : L R
Sampling rate               : 48.0 kHz
Frame rate                  : 31.250 FPS (1536 SPF)
Compression mode            : Lossy
Stream size                 : 308 MiB (7%)
Service kind                : Complete Main
Default                     : Yes
Forced                      : No
-

Скриншоты

-
[korsars.pro].t28489.torrent 
Торрент: Зарегистрирован [ 2020-05-04 23:12 ] · 80EEFFB1AFAC219AE0BE71B6C07F8003EA8E4617

Скачать .torrent

Размер .torrent файла 12 KB

Статус: проверено
.torrent скачан: 24 раз
Размер: 4,62 GB
Правила
Похожие темы

Вы не зарегистрированы на нашем сайте. Вам доступна для скачивания только часть контента. Чтобы увидеть весь контент сайта, пожалуйста, зарегистрироруйтесь.

Дешевый и быстрый Сидбокс

Ключи и пин-коды

Игры, Кредитные карты, IP-телефония, Интернет провайдеры, Мобильная связь, Спутниковое ТВ

Электронные книги

Бизнес и экономика, Дом, быт, семья, досуг, Санкт-Петербург, Компьютеры и интернет, Наука и образование, Техническая литература, Юридическая литература

Цифровые товары

iTunes & App Store, Базы данных, Дизайн, Доступ к ресурсам, Kарты продления, ключи, Фотографии, Шаблоны для сайтов

Программное обеспечение

Безопасность, Игры, PC, Интернет, Мобильная связь, Программирование, Продвижение сайтов (SEO), Утилиты
У Вас отключен VIP статус, поэтому Вам показывается реклама на сайте. Вы можете поддержать наш ресурс и приобрести VIP статус, тем самым отключив показ рекламы на сайте, а ещё VIP пользователи получают возможность

смотреть аниме онлайн в HD качестве

(не распространяется на раздел Flarrow Films), а так же получить 5 инвайтов, которыми можно поделиться с друзьями или знакомыми.
Дешевый и быстрый Сидбокс

Ключи и пин-коды

Игры, Кредитные карты, IP-телефония, Интернет провайдеры, Мобильная связь, Спутниковое ТВ

Электронные книги

Бизнес и экономика, Дом, быт, семья, досуг, Санкт-Петербург, Компьютеры и интернет, Наука и образование, Техническая литература, Юридическая литература

Цифровые товары

iTunes & App Store, Базы данных, Дизайн, Доступ к ресурсам, Kарты продления, ключи, Фотографии, Шаблоны для сайтов

Программное обеспечение

Безопасность, Игры, PC, Интернет, Мобильная связь, Программирование, Продвижение сайтов (SEO), Утилиты
[Профиль] [ЛС]
Показать сообщения:    
Ответить на тему

Текущее время: 29-Ноя 00:16

Часовой пояс: UTC + 4



Вы не можете начинать темы
Вы не можете отвечать на сообщения
Вы не можете редактировать свои сообщения
Вы не можете удалять свои сообщения
Вы не можете голосовать в опросах
Вы не можете прикреплять файлы к сообщениям
Вы можете скачивать файлы
Анализ сайта korsars.pro Яндекс.Метрика