Городской Охотник: Магнум .357 / City Hunter: 357 Magnum (1989) DVDRip-AVC | Hi10P | Persona99

Ответить на тему
Статистика раздачи [Обновить пиров]
Размер:  1,56 GB   |    Зарегистрирован:  1 год 8 месяцев   |    .torrent скачан:  3 раза
Раздают:  10  [  0 KB/s  ]   Качают:  3  [  0 KB/s  ]   Подробная статистика пиров
 
   
 
 
Автор Сообщение

4udaki ®

Онлайн

Медали


Пол: Мужской

Стаж: 6 лет 11 месяцев

Наличие запрета:

Сообщений: 11568

Откуда: korsars.pro

Отдача: 2 Mb/s

Загрузка: 20 Mb/s

Нажми


Скачать Adguard бесплатно

Создавать темы 16-Фев-2020 21:00

[Цитировать]

Информация о фильме
Название: Городской Охотник: Магнум .357
Оригинальное название: City Hunter: 357 Magnum
Год выхода: 1989
Жанр: приключения, комедия
Режиссер: Кодама Кэндзи
О фильме:
В этом фильме "Городскому охотнику" Рё Саеба и его помощнице Каори предстоит помочь русской пианистке Нине, приехавшей в город для благотворительных концертов, найти её отца, с которым она была разлучена в детстве. Но Нину и её деда похищают. Так же Нина каким-то образом связана с террористами и убийством в аэропорту. Разгадка находится в прошлом Нины..
Доп. информация:

Релиз GSGroup

Страна: Япония
Студия: Sunrise
Продолжительность: 01:26:42
Перевод: Любительский одноголосый (Persona99)
Файл
Формат видео: MKV
Кодек: x264
Качество: DVDRip
Видео: 720x540, 23.976 fps, 1884 Kbps, 10 bits
Звук:
1. AC-3, 48 KHz, 256 Kbps, 2 channels Rus
2. AC-3, 48 KHz, 384 Kbps, 2 channels Jpn
Субтитры: русские (встроенные)
Семпл

Подробные тех. данные

General
Unique ID : 216660249290107975609943960996977680018 (0xA2FF3F06162331D8B77255F3F5F19E92)
Complete name : E:Anime_ECity_Hunter_357_Magnum_(1989)_[Persona99.GSG].(DVD_720x540_x264_AC3_Hi10P).rus.jpn.mkv
Format : Matroska
Format version : Version 2
File size : 1.56 GiB
Duration : 1h 26mn
Overall bit rate : 2 575 Kbps
Movie name : City Hunter - Million Dollar Conspiracy
Encoded date : UTC 2019-08-10 07:38:02
Writing application : mkvmerge v4.0.0 ('The Stars were mine') built on Jun 6 2010 16:18:42
Writing library : libebml v1.0.0 + libmatroska v1.0.0
Attachements : ARIALUNI.TTF / CatullBQ-Italic.ttf / times.ttf / timesi.ttf / WienInline.ttf
Video
ID : 1
Format : AVC
Format/Info : Advanced Video Codec
Format profile : High 10@L5
Format settings, CABAC : Yes
Format settings, ReFrames : 16 frames
Codec ID : V_MPEG4/ISO/AVC
Duration : 1h 26mn
Bit rate : 1 884 Kbps
Width : 720 pixels
Height : 540 pixels
Display aspect ratio : 4:3
Frame rate mode : Constant
Frame rate : 23.976 fps
Color space : YUV
Chroma subsampling : 4:2:0
Bit depth : 10 bits
Scan type : Progressive
Bits/(Pixel*Frame) : 0.202
Stream size : 1.14 GiB (73%)
Writing library : x264 core 133 r2334 a3ac64b
Encoding settings : cabac=1 / ref=16 / deblock=1:-1:-1 / analyse=0x3:0x133 / me=umh / subme=10 / psy=1 / psy_rd=1.00:0.00 / mixed_ref=1 / me_range=24 / chroma_me=1 / trellis=2 / 8x8dct=1 / cqm=0 / deadzone=21,11 / fast_pskip=0 / chroma_qp_offset=-2 / threads=18 / lookahead_threads=4 / sliced_threads=0 / nr=0 / decimate=1 / interlaced=0 / bluray_compat=0 / constrained_intra=0 / bframes=10 / b_pyramid=2 / b_adapt=2 / b_bias=0 / direct=3 / weightb=1 / open_gop=0 / weightp=2 / keyint=250 / keyint_min=23 / scenecut=40 / intra_refresh=0 / rc_lookahead=60 / rc=crf / mbtree=1 / crf=16.0 / qcomp=0.60 / qpmin=0 / qpmax=81 / qpstep=4 / ip_ratio=1.40 / aq=2:1.00
Default : No
Forced : No
Audio #1
ID : 2
Format : AC-3
Format/Info : Audio Coding 3
Mode extension : CM (complete main)
Format settings, Endianness : Big
Codec ID : A_AC3
Duration : 1h 26mn
Bit rate mode : Constant
Bit rate : 256 Kbps
Channel(s) : 2 channels
Channel positions : Front: L R
Sampling rate : 48.0 KHz
Compression mode : Lossy
Stream size : 159 MiB (10%)
Title : Persona99
Language : Russian
Default : Yes
Forced : No
Audio #2
ID : 3
Format : AC-3
Format/Info : Audio Coding 3
Mode extension : CM (complete main)
Format settings, Endianness : Big
Codec ID : A_AC3
Duration : 1h 26mn
Bit rate mode : Constant
Bit rate : 384 Kbps
Channel(s) : 2 channels
Channel positions : Front: L R
Sampling rate : 48.0 KHz
Compression mode : Lossy
Stream size : 238 MiB (15%)
Language : Japanese
Default : No
Forced : No
Text
ID : 4
Format : ASS
Codec ID : S_TEXT/ASS
Codec ID/Info : Advanced Sub Station Alpha
Compression mode : Lossless
Language : Russian
Default : No
Forced : No

Скриншоты

-
[korsars.pro].t26413.torrent 
Торрент: Зарегистрирован [ 2020-02-16 21:00 ] · 58B9F5927C2A8A3D7FED7D899AC583F617941AA6

Скачать .torrent

Размер .torrent файла 17 KB

Статус: проверено
.torrent скачан: 3 раз
Размер: 1,56 GB
Правила
Похожие темы

Вы не зарегистрированы на нашем сайте. Вам доступна для скачивания только часть контента. Чтобы увидеть весь контент сайта, пожалуйста, зарегистрироруйтесь.

Дешевый и быстрый Сидбокс

Ключи и пин-коды

Игры, Кредитные карты, IP-телефония, Интернет провайдеры, Мобильная связь, Спутниковое ТВ

Электронные книги

Бизнес и экономика, Дом, быт, семья, досуг, Санкт-Петербург, Компьютеры и интернет, Наука и образование, Техническая литература, Юридическая литература

Цифровые товары

iTunes & App Store, Базы данных, Дизайн, Доступ к ресурсам, Kарты продления, ключи, Фотографии, Шаблоны для сайтов

Программное обеспечение

Безопасность, Игры, PC, Интернет, Мобильная связь, Программирование, Продвижение сайтов (SEO), Утилиты
У Вас отключен VIP статус, поэтому Вам показывается реклама на сайте. Вы можете поддержать наш ресурс и приобрести VIP статус, тем самым отключив показ рекламы на сайте, а ещё VIP пользователи получают возможность

смотреть аниме онлайн в HD качестве

(не распространяется на раздел Flarrow Films), а так же получить 5 инвайтов, которыми можно поделиться с друзьями или знакомыми.
Дешевый и быстрый Сидбокс

Ключи и пин-коды

Игры, Кредитные карты, IP-телефония, Интернет провайдеры, Мобильная связь, Спутниковое ТВ

Электронные книги

Бизнес и экономика, Дом, быт, семья, досуг, Санкт-Петербург, Компьютеры и интернет, Наука и образование, Техническая литература, Юридическая литература

Цифровые товары

iTunes & App Store, Базы данных, Дизайн, Доступ к ресурсам, Kарты продления, ключи, Фотографии, Шаблоны для сайтов

Программное обеспечение

Безопасность, Игры, PC, Интернет, Мобильная связь, Программирование, Продвижение сайтов (SEO), Утилиты
[Профиль] [ЛС]
Показать сообщения:    
Ответить на тему

Текущее время: 24-Окт 20:01

Часовой пояс: UTC + 4



Вы не можете начинать темы
Вы не можете отвечать на сообщения
Вы не можете редактировать свои сообщения
Вы не можете удалять свои сообщения
Вы не можете голосовать в опросах
Вы не можете прикреплять файлы к сообщениям
Вы можете скачивать файлы
Анализ сайта korsars.pro Яндекс.Метрика