Видеть / See [S01] (2019) WEB-DL 1080p | TVShows

Ответить на тему
Статистика раздачи [Обновить пиров]
Размер:  32,74 GB   |    Зарегистрирован:  3 года 2 месяца   |    .torrent скачан:  3 раза
Раздают:  12  [  0 KB/s  ]   Качают:  7  [  0 KB/s  ]   Подробная статистика пиров
   
 
Автор Сообщение

4udaki ®

Оффлайн

Медали


Пол: Мужской

Стаж: 8 лет 4 месяца

Наличие запрета:

Сообщений: 38140

Откуда: korsars.pro

Отдача: 100 Mb/s

Загрузка: 100 Mb/s



Скачать Adguard бесплатно

Создавать темы 17-Янв-2020 01:00

[Цитировать]

[img=right]http://a.Radikal больше не существует. Перезалейте изображение на другой хостинг!/a14/1911/19/9a5d9210718d.jpg[/img]
Видеть / See
Страна: США
Производство: Endeavor Content, Chernin Entertainment
Год выпуска: 2019
Жанр: фантастика, боевик, драма
Продолжительность: 8х ~00:57:00
Режиссеры: Френсис Лоуренс, Андерс Энгстрем, Стивен Серджик
В ролях: Элфри Вудард, Джейсон Момоа, Сильвия Хукс, Хера Хильмар, Кристиан Камарго, Арчи Мадекве, Неста Купер, Джош Блэкер, Кристиан Слоун
Описание: В далёком будущем человеческая раса полностью лишилась зрения. Чтобы выжить, людям пришлось найти новый способ сосуществовать, строить и добывать пищу. Всё меняется, когда в семье бесстрашного воина Бабы Восса рождаются зрячие близнецы. Их появление рискует нарушить хрупкий баланс нового мира и ввергнуть успокоившуюся цивилизацию в хаос...

Перевод: Профессиональный (многоголосый, закадровый) | TVShows
Субтитры: английские (full)-Качество: WEB-DL 1080p
Формат: МКV
Видео кодек: AVC
Аудио кодек: АС3
Видео: 1920x910 (2.110), 23.976 fps, MPEG-4 AVC ~9 871 kbps avg
Аудио №1: 48.0 kHz, AC3 Dolby Digital, 3/2 (L,C,R,l,r) + LFE ch, ~384 kbps | RUS
Аудио №2: 48.0 kHz, AC3 Dolby Digital, 3/2 (L,C,R,l,r) + LFE ch, ~384 kbps | ENG
Формат субтитров: UTF-8 Plain Text
Дата премьеры (мир): 1 ноября 2019
[img]http://a.Radikal больше не существует. Перезалейте изображение на другой хостинг!/a34/1812/16/ce23a5db49e7.gif[/img]

Media Info

General
Unique ID : 235619077273877301183065636543429631250 (0xB14295695EA8FCF1DE979B8147045D12)
Complete name : See.S01E01.1080p.TVShows.mkv
Format : Matroska
Format version : Version 4
File size : 4.27 GiB
Duration : 57 min 30 s
Overall bit rate : 10.6 Mb/s
Encoded date : UTC 2019-11-10 08:29:14
Writing application : mkvmerge v33.1.0 ('Primrose') 64-bit
Writing library : libebml v1.3.7 + libmatroska v1.5.0
Video
ID : 1
Format : AVC
Format/Info : Advanced Video Codec
Format profile : High@L4
Format settings : CABAC / 4 Ref Frames
Format settings, CABAC : Yes
Format settings, Reference frames : 4 frames
Codec ID : V_MPEG4/ISO/AVC
Duration : 57 min 30 s
Bit rate : 9 871 kb/s
Width : 1 920 pixels
Height : 910 pixels
Display aspect ratio : 2.110
Frame rate mode : Constant
Frame rate : 23.976 (24000/1001) FPS
Color space : YUV
Chroma subsampling : 4:2:0
Bit depth : 8 bits
Scan type : Progressive
Bits/(Pixel*Frame) : 0.236
Stream size : 3.97 GiB (93%)
Language : English
Default : Yes
Forced : No
Color range : Limited
Color primaries : BT.709
Transfer characteristics : BT.709
Matrix coefficients : BT.709
Audio #1
ID : 2
Format : AC-3
Format/Info : Audio Coding 3
Commercial name : Dolby Digital
Codec ID : A_AC3
Duration : 57 min 30 s
Bit rate mode : Constant
Bit rate : 384 kb/s
Channel(s) : 6 channels
Channel layout : L R C LFE Ls Rs
Sampling rate : 48.0 kHz
Frame rate : 31.250 FPS (1536 SPF)
Compression mode : Lossy
Stream size : 158 MiB (4%)
Title : TVShows
Language : Russian
Service kind : Complete Main
Default : Yes
Forced : Yes
Audio #2
ID : 3
Format : AC-3
Format/Info : Audio Coding 3
Commercial name : Dolby Digital
Codec ID : A_AC3
Duration : 57 min 30 s
Bit rate mode : Constant
Bit rate : 384 kb/s
Channel(s) : 6 channels
Channel layout : L R C LFE Ls Rs
Sampling rate : 48.0 kHz
Frame rate : 31.250 FPS (1536 SPF)
Compression mode : Lossy
Stream size : 158 MiB (4%)
Title : Original
Language : English
Service kind : Complete Main
Default : No
Forced : No
Text
ID : 4
Format : UTF-8
Codec ID : S_TEXT/UTF8
Codec ID/Info : UTF-8 Plain Text
Duration : 55 min 44 s
Bit rate : 41 b/s
Count of elements : 601
Stream size : 16.8 KiB (0%)
Title : English
Language : English
Default : No
Forced : No

Скриншоты

AdGuard VPN - бесплатный, надёжный и быстрый VPN
[korsars.pro].t25704.torrent 
Торрент: Зарегистрирован [ 2020-01-17 01:00 ] · D4F89326991495623BE2D82E94FA7403C36175A7

Скачать .torrent

Размер .torrent файла 165 KB

Статус: проверено
.torrent скачан: 3 раз
Размер: 32,74 GB
Правила
AdGuard VPN - бесплатный, надёжный и быстрый VPN
Похожие темы

Вы не зарегистрированы на нашем сайте. Вам доступна для скачивания только часть контента. Чтобы увидеть весь контент сайта, пожалуйста, зарегистрируйтесь.

Дешевый и быстрый Сидбокс
У Вас отключен VIP статус, поэтому Вам показывается реклама на сайте. Вы можете поддержать наш ресурс и приобрести VIP статус, тем самым отключив показ рекламы на сайте, а ещё VIP пользователи получают 15 инвайтов, которыми можно поделиться с друзьями или знакомыми.
Дешевый и быстрый Сидбокс
[Профиль] [ЛС]
Показать сообщения:    
Ответить на тему

Текущее время: 24-Мар 06:46

Часовой пояс: UTC + 4



Вы не можете начинать темы
Вы не можете отвечать на сообщения
Вы не можете редактировать свои сообщения
Вы не можете удалять свои сообщения
Вы не можете голосовать в опросах
Вы не можете прикреплять файлы к сообщениям
Вы можете скачивать файлы
Анализ сайта korsars.pro Яндекс.Метрика