Академия ведьмочек / Little Witch Academia TV [S01] (2017) HDRip | Persona99

Ответить на тему
Статистика раздачи [Обновить пиров]
Размер:  7,62 GB   |    Зарегистрирован:  1 год 11 месяцев   |    .torrent скачан:  2 раза

Полного источника не было: Никогда

Качают:  2  [  0 KB/s  ]   Подробная статистика пиров
 
   
 
 
 
Автор Сообщение

4udaki ®

Онлайн

Медали


Пол: Мужской

Стаж: 7 лет 1 месяц

Наличие запрета:

Сообщений: 12171

Откуда: korsars.pro

Отдача: 2 Mb/s

Загрузка: 20 Mb/s

Нажми


Скачать Adguard бесплатно

Создавать темы 04-Янв-2020 17:00

[Цитировать]


Страна: Япония
Год выпуска: 2017
Жанр: приключения, фэнтези, комедия
Тип: TV
Продолжительность: (25 эп.) 00:24:00
Режиссер: Ёсинари Ё
Студия: Trigger
Описание:
Девочка Кагари Ацуко, побывав однажды на магическом представлении, с первого взгляда влюбилась в этот невероятный вид искусства. Несколько лет спустя ей даже удаётся поступить в лучшую в Европе школу магии Новой Луны. Хотя Кагари, или Акко, как просит она себя звать, родом из семьи вполне обычных людей. До школы же ещё надо добраться, но никак нельзя опоздать на церемонию зачисления. С этого и начинаются приключения Акко.
Доп. информация:
Перевод: Любительский одноголосый (Persona99)
Релиз GSGroup


Качество: HDRip
Тип релиза: Без хардсаба
Формат видео: AVI
Видео: XviD, 720x400, 23.976 fps, 1412 Kbps, 8 bits
Аудио 1: AC-3, 48 KHz, 192 Kbps, 2 channels Язык Русский (в составе контейнера) ; Озвучка: Любительский одноголосый (Persona99)
Аудио 2: AC-3, 48 KHz, 192 Kbps, 2 channels Язык Японский ; Озвучка 2: оригинал
Субтитры: внешние srt, ass Язык субтитров русский ; Перевод: LeDi-MaHo Team Перевод /Оформление: MantisFL, Редактор: Holydarkness, Tousaka Jun

Подробные тех. данные

General
Complete name : Little Witch Academia TV2_Little Witch Academia (2017) [Persona99.GSG](XviD 720x400 AC3).rus.jap.avi
Format : AVI
Format/Info : Audio Video Interleave
File size : 312 MiB
Duration : 24mn 2s
Overall bit rate : 1 816 Kbps
Writing application : VirtualDubMod 1.5.10.2 (build 2540/release)
Writing library : VirtualDubMod build 2540/release
Video
ID : 0
Format : MPEG-4 Visual
Format profile : Advanced Simple@L5
Format settings, BVOP : 2
Format settings, QPel : No
Format settings, GMC : No warppoints
Format settings, Matrix : Default (H.263)
Codec ID : XVID
Codec ID/Hint : XviD
Duration : 24mn 2s
Bit rate : 1 418 Kbps
Width : 720 pixels
Height : 400 pixels
Display aspect ratio : 16:9
Frame rate : 23.976 fps
Color space : YUV
Chroma subsampling : 4:2:0
Bit depth : 8 bits
Scan type : Progressive
Compression mode : Lossy
Bits/(Pixel*Frame) : 0.205
Stream size : 244 MiB (78%)
Writing library : XviD 67
Audio #1
ID : 1
Format : AC-3
Format/Info : Audio Coding 3
Mode extension : CM (complete main)
Format settings, Endianness : Big
Codec ID : 2000
Duration : 24mn 2s
Bit rate mode : Constant
Bit rate : 192 Kbps
Channel(s) : 2 channels
Channel positions : Front: L R
Sampling rate : 48.0 KHz
Compression mode : Lossy
Stream size : 33.0 MiB (11%)
Alignment : Split accross interleaves
Interleave, duration : 42 ms (1.00 video frame)
Interleave, preload duration : 500 ms
Audio #2
ID : 2
Format : AC-3
Format/Info : Audio Coding 3
Mode extension : CM (complete main)
Format settings, Endianness : Big
Codec ID : 2000
Duration : 24mn 2s
Bit rate mode : Constant
Bit rate : 192 Kbps
Channel(s) : 2 channels
Channel positions : Front: L R
Sampling rate : 48.0 KHz
Compression mode : Lossy
Stream size : 33.0 MiB (11%)
Alignment : Split accross interleaves
Interleave, duration : 42 ms (1.00 video frame)
Interleave, preload duration : 500 ms

Список эпизодов

01. A New Beginning
02. Papillodea
03. Don`t Stop Me Now
04. Nightfall
05. Luna Nova and the White Dragon
06. The Fountain of Polaris
07. Orange Submariner
08. Sleeping Sucy
09. Brightonberry`s Undead Travel Log
10. Bee Commotion
11. Blue Moon
12. What You Will
13. Samhain Magic
14. New Age Magic
15. Chariot of Fire
16. The Trial of Pohjola
17. Amanda O`Neill and the Holy Grail
18. Sky War Stanship
19. Cavendish
20. Intellect and Sensitivity
21. Wagandea
22. Chariot and Croix
23. Yesterday
24. The Road to Arcturus
25. Tree of Wishes

Скриншоты

Семпл:-
[korsars.pro].t25407.torrent 
Торрент: Зарегистрирован [ 2020-01-04 17:00 ] · 5CB58DA271ACD0685293CE2A85D32412DF938474

Скачать .torrent

Размер .torrent файла 48 KB

Статус: проверено
.torrent скачан: 2 раз
Размер: 7,62 GB
Правила
Похожие темы

Вы не зарегистрированы на нашем сайте. Вам доступна для скачивания только часть контента. Чтобы увидеть весь контент сайта, пожалуйста, зарегистрироруйтесь.

Дешевый и быстрый Сидбокс

Ключи и пин-коды

Игры, Кредитные карты, IP-телефония, Интернет провайдеры, Мобильная связь, Спутниковое ТВ

Электронные книги

Бизнес и экономика, Дом, быт, семья, досуг, Санкт-Петербург, Компьютеры и интернет, Наука и образование, Техническая литература, Юридическая литература

Цифровые товары

iTunes & App Store, Базы данных, Дизайн, Доступ к ресурсам, Kарты продления, ключи, Фотографии, Шаблоны для сайтов

Программное обеспечение

Безопасность, Игры, PC, Интернет, Мобильная связь, Программирование, Продвижение сайтов (SEO), Утилиты
У Вас отключен VIP статус, поэтому Вам показывается реклама на сайте. Вы можете поддержать наш ресурс и приобрести VIP статус, тем самым отключив показ рекламы на сайте, а ещё VIP пользователи получают возможность

смотреть аниме онлайн в HD качестве

(не распространяется на раздел Flarrow Films), а так же получить 5 инвайтов, которыми можно поделиться с друзьями или знакомыми.
Дешевый и быстрый Сидбокс

Ключи и пин-коды

Игры, Кредитные карты, IP-телефония, Интернет провайдеры, Мобильная связь, Спутниковое ТВ

Электронные книги

Бизнес и экономика, Дом, быт, семья, досуг, Санкт-Петербург, Компьютеры и интернет, Наука и образование, Техническая литература, Юридическая литература

Цифровые товары

iTunes & App Store, Базы данных, Дизайн, Доступ к ресурсам, Kарты продления, ключи, Фотографии, Шаблоны для сайтов

Программное обеспечение

Безопасность, Игры, PC, Интернет, Мобильная связь, Программирование, Продвижение сайтов (SEO), Утилиты
[Профиль] [ЛС]
Показать сообщения:    
Ответить на тему

Текущее время: 09-Дек 16:55

Часовой пояс: UTC + 4



Вы не можете начинать темы
Вы не можете отвечать на сообщения
Вы не можете редактировать свои сообщения
Вы не можете удалять свои сообщения
Вы не можете голосовать в опросах
Вы не можете прикреплять файлы к сообщениям
Вы можете скачивать файлы
Анализ сайта korsars.pro Яндекс.Метрика