Ангельские ритмы! / Angel Beats! [S01 + Спешлы + Бонусы] (2010) BDRip | L | Animedia

Ответить на тему
Статистика раздачи [Обновить пиров]
Размер:  5,41 GB   |    Зарегистрирован:  1 год 9 месяцев   |    .torrent скачан:  5 раз
Раздают:  11  [  0 KB/s  ]   Качают:  4  [  0 KB/s  ]   Подробная статистика пиров
 
   
 
 
Автор Сообщение

4udaki ®

Онлайн

Медали


Пол: Мужской

Стаж: 6 лет 11 месяцев

Наличие запрета:

Сообщений: 11592

Откуда: korsars.pro

Отдача: 2 Mb/s

Загрузка: 20 Mb/s

Нажми


Скачать Adguard бесплатно

Создавать темы 30-Дек-2019 01:00

[Цитировать]

Информация о фильме
Название: Ангельские ритмы!
Оригинальное название: Angel Beats!
Год выхода: 2010
Жанр: драма, комедия, мистика, приключения, трагедия
Режиссер: Сэидзи Киси
Автор оригинала: Маэда Дзюн
Возрастное ограничение: 14+
В ролях: Хироси Камия, Харуми Сакурай, Кана Ханадзава, Рёхэй Кимура, Сюн Такаги, Юуки Масуда, Юмико Кобаяси, Майкл Ривас, Мэгуми Огата, Фуко Саито
Описание: Не зря говорят, что японская школьная система – самая тяжелая и суровая. Ибо очнулся парень по фамилии Отонаси (имя он забыл) на том свете – а там снова школа! Вот только, несмотря на красивую обертку, школа эта больше походит на исправительную колонию для тех, кто слишком рано покинул бренный мир и не успел (или не захотел) познать правила и законы «реального общества». То есть, покрутится в ней юный воспитуемый, научится ходить строем и участвовать во внеклассных мероприятиях согласно плану – и пора отправляться на этап согласно накопленной карме. Только почему-то не всем воспитуемым это нравится…
Самые разные школьники, решившие не исчезать, а разобраться, за что и от кого получили «новый срок», неформально объединились, создав «Фронт загробного мира» под командой волевой и практичной Юри. Их цель – получить ответы, их жизнь – отрицание навязанных правил, а средства достижения цели – вечная борьба с администрацией и «хозяйкой» школы по имени Тэнси (ангел). Вот в такую отрицательную компанию влился Отонаси - главный герой поневоле. Теперь парню гарантированы веселая жизнь, верные друзья и абонемент на концерты лучшей местной группы «Мертвые девушки и Чудо-Юдо». То ли еще будет!- -Страна: Япония
Студия: Aniplex
Продолжительность: 15 серий x ~ 00:26:00 ; 01 серия x 00:02:00
Перевод: Любительский двухголосый, закадровый (Lupin & Say) | Animedia

Качество: BDRip [**Исходник: Blu-Ray Remux 1080p thx antiBILLotic]
Контейнер: AVI
Кодек: XviD
Видео: 720x400 (16:9), 23.976 fps, 1 504 kb/s (0.218 bit/pixel)
Аудио №1: AC-3, 48,0 КГц, 2 ch, 192 Кбит/сек, CBR | | Animedia
Аудио №2: AC-3, 48,0 КГц, 2 ch, 192 /сек, CBR | | Japan (Оригинал)
Русские Субтитры: Есть (Полный Перевод)-

Список серий

01. Начало пути
02. Гильдия
Sp3. Адская кухня
03. Моя песня
04. День игры
Sp2. Лестница в небеса
05. Любимый вкус
06. Семейное дело
07. Живой
08. Танцующая в темноте
09. В твоей памяти
10. Дни прощания
11. Изменить мир
12. Достучаться до небес
13. Конец пути
Sp1. Ещё одна концовка
-

Папка Bonus содержит

Оригинальные Опенинг и Эндинг без титров
[Deadmau- RAWS] Angel.Beats.2010.S01.Rus.Jap.BDRip.Deadmauvlad.NCED.01-10 [Эндинги]
[Deadmau- RAWS] Angel.Beats.2010.S01.Rus.Jap.BDRip.Deadmauvlad.NCOP [Опенинг]
**[Deadmau- RAWS] Angel.Beats.2010.S01.Rus.Cover.Full.Version.Deadmauvlad [песня на русском]
**
Вокал: Camellia ;
Звукорежиссура: Radiant ;
Перевод: Lord_D, Elli, Ray ;
-

MediaInfo

General
General
Complete name : [Deadmau- RAWS] Angel.Beats.2010.S01.Rus.Jap.BDRip.Deadmauvlad.Ep.01.avi
Format : AVI
Format/Info : Audio Video Interleave
File size : 355 MiB
Duration : 26 min 3 s
Overall bit rate : 1 902 kb/s
Movie name : [Deadmau- RAWS] Ангельские.Ритмы.2010.S01.Rus.Jap.BDRip.Deadmauvlad.Ep.01
Director : Encoder by Deadmauvlad
Genre : романтика, драма
Writing application : VirtualDubMod 1.5.10.3 | www.virtualdub-fr.org || (build 2550/release)
Original source form/Name : Аниме
Copyright : Encoder by Deadmauvlad
Comment : Encoder by Deadmauvlad
Video
ID : 0
Format : MPEG-4 Visual
Format profile : Advanced Simple@L5
Format settings : BVOP1 / Custom Matrix
Format settings, BVOP : 1
Format settings, QPel : No
Format settings, GMC : No warppoints
Format settings, Matrix : Custom
Codec ID : XVID
Codec ID/Hint : XviD
Duration : 26 min 3 s
Bit rate : 1 504 kb/s
Width : 720 pixels
Height : 400 pixels
Display aspect ratio : 16:9
Frame rate : 23.976 (24000/1001) FPS
Color space : YUV
Chroma subsampling : 4:2:0
Bit depth : 8 bits
Scan type : Progressive
Compression mode : Lossy
Bits/(Pixel*Frame) : 0.218
Stream size : 280 MiB (79%)
Writing library : XviD 73
Audio #1
ID : 1
Format : AC-3
Format/Info : Audio Coding 3
Commercial name : Dolby Digital
Codec ID : 2000
Duration : 23 min 41 s
Bit rate mode : Constant
Bit rate : 192 kb/s
Channel(s) : 2 channels
Channel layout : L R
Sampling rate : 48.0 kHz
Frame rate : 31.250 FPS (1536 SPF)
Bit depth : 16 bits
Compression mode : Lossy
Stream size : 32.5 MiB (9%)
Alignment : Split accross interleaves
Interleave, duration : 42 ms (1.00 video frame)
Interleave, preload duration : 500 ms
Audio #2
ID : 2
Format : AC-3
Format/Info : Audio Coding 3
Commercial name : Dolby Digital
Codec ID : 2000
Duration : 23 min 41 s
Bit rate mode : Constant
Bit rate : 192 kb/s
Channel(s) : 2 channels
Channel layout : L R
Sampling rate : 48.0 kHz
Frame rate : 31.250 FPS (1536 SPF)
Bit depth : 16 bits
Compression mode : Lossy
Stream size : 32.5 MiB (9%)
Alignment : Split accross interleaves
Interleave, duration : 42 ms (1.00 video frame)
Interleave, preload duration : 500 ms

Скриншоты

Релиз / Автор рипа: Deadmauvlad
[korsars.pro].t25272.torrent 
Торрент: Зарегистрирован [ 2019-12-30 01:00 ] · 3DD5DF470E166EE6470887028EE0316789084803

Скачать .torrent

Размер .torrent файла 19 KB

Статус: проверено
.torrent скачан: 5 раз
Размер: 5,41 GB
Правила
Похожие темы

Вы не зарегистрированы на нашем сайте. Вам доступна для скачивания только часть контента. Чтобы увидеть весь контент сайта, пожалуйста, зарегистрироруйтесь.

Дешевый и быстрый Сидбокс

Ключи и пин-коды

Игры, Кредитные карты, IP-телефония, Интернет провайдеры, Мобильная связь, Спутниковое ТВ

Электронные книги

Бизнес и экономика, Дом, быт, семья, досуг, Санкт-Петербург, Компьютеры и интернет, Наука и образование, Техническая литература, Юридическая литература

Цифровые товары

iTunes & App Store, Базы данных, Дизайн, Доступ к ресурсам, Kарты продления, ключи, Фотографии, Шаблоны для сайтов

Программное обеспечение

Безопасность, Игры, PC, Интернет, Мобильная связь, Программирование, Продвижение сайтов (SEO), Утилиты
У Вас отключен VIP статус, поэтому Вам показывается реклама на сайте. Вы можете поддержать наш ресурс и приобрести VIP статус, тем самым отключив показ рекламы на сайте, а ещё VIP пользователи получают возможность

смотреть аниме онлайн в HD качестве

(не распространяется на раздел Flarrow Films), а так же получить 5 инвайтов, которыми можно поделиться с друзьями или знакомыми.
Дешевый и быстрый Сидбокс

Ключи и пин-коды

Игры, Кредитные карты, IP-телефония, Интернет провайдеры, Мобильная связь, Спутниковое ТВ

Электронные книги

Бизнес и экономика, Дом, быт, семья, досуг, Санкт-Петербург, Компьютеры и интернет, Наука и образование, Техническая литература, Юридическая литература

Цифровые товары

iTunes & App Store, Базы данных, Дизайн, Доступ к ресурсам, Kарты продления, ключи, Фотографии, Шаблоны для сайтов

Программное обеспечение

Безопасность, Игры, PC, Интернет, Мобильная связь, Программирование, Продвижение сайтов (SEO), Утилиты
[Профиль] [ЛС]
Показать сообщения:    
Ответить на тему

Текущее время: 28-Окт 01:49

Часовой пояс: UTC + 4



Вы не можете начинать темы
Вы не можете отвечать на сообщения
Вы не можете редактировать свои сообщения
Вы не можете удалять свои сообщения
Вы не можете голосовать в опросах
Вы не можете прикреплять файлы к сообщениям
Вы можете скачивать файлы
Анализ сайта korsars.pro Яндекс.Метрика