Рыцарь перед Рождеством / The Knight Before Christmas (2019) WEBRip 720p | Flarrow Films

Ответить на тему
Статистика раздачи [Обновить пиров]
Размер:  3,02 GB   |    Зарегистрирован:  1 год 2 месяца   |    .torrent скачан:  1 раз
Раздают:  30  [  0 KB/s  ]   Качают:  2  [  0 KB/s  ]   Подробная статистика пиров
 
   
 
 
Автор Сообщение

4udaki ®

Оффлайн

Медали


Пол: Мужской

Стаж: 6 лет 4 месяца

Наличие запрета:

Сообщений: 9105

Откуда: korsars.pro

Отдача: 2 Mb/s

Загрузка: 20 Mb/s

Нажми


Скачать Adguard бесплатно

Создавать темы 19-Дек-2019 13:00

[Цитировать]

Информация о фильме
Название: Рыцарь перед Рождеством
Оригинальное название: The Knight Before Christmas
Год выхода: 2019
Жанр: Мелодрама, фэнтези
Режиссер: Моника Митчелл
В ролях: Ванесса Энн Хадженс, Эммануэль Шрики, Джош Уайтхаус, Гарри Джарвис, Мими Джианопулос, Элла Кеньон, Андреа Сеньор, Джейкоб Соли, Оливия Гуданец, Телиса Чандлер, Джесси Джерваси, Мими Джианопулос, Джейн Иствуд, Скотт Эджкомб, Оливия Гуданец
О фильме:
Средневековый рыцарь сэр Коул переносится в современный Огайо, где знакомится со школьной учительницей Брук. Она поможет ему разобраться в хитросплетениях высокотехнологического общества и выполнить возложенную на него миссию, а он напомнит ей о силе любви.

Страна: США
Студия: Motion Picture Corporation of America
Продолжительность: 01:32:39
Перевод: Любительский многоголосый | Flarrow Films
Файл
Кодек: AVC
Качество: WEBRip 720p
Видео: MPEG-4 AVC, 3830 Kбит/с, 1280x720, 24.000 кадр/с
Видео, Звук: ► Без Рекламы!
Аудио #1: Русский (АС3, 2 ch, 256 Кбит/с, 48.0 KHz) Любительский (многоголосый, закадровый) Flarrow Films
Аудио #2: Английский (АС3, 6 ch, 640 Кбит/с, 48.0 KHz)
Субтитры: Русские (Full), английские, испанские, французские, немецкие, итальянские | Нетфликс
Трейлер

MediaInfo

Источник: The.Knight.Before.Christmas.2019.720p.NF.WEBRip.DDP5.1.x264-TOMMY
General
Unique ID : 216197088238339012378028990426337748160 (0xA2A60B6BBDD23D3897248D331BE7A4C0)
Complete name : The.Knight.Before.Christmas.2019.NF.WEB.720p.mkv
Format : Matroska
Format version : Version 4
File size : 3.02 GiB
Duration : 1 h 32 min
Overall bit rate mode : Variable
Overall bit rate : 4 661 kb/s
Encoded date : UTC 2019-12-17 20:11:04
Writing application : mkvmerge v7.1.0 ('Good Love') 64bit built on Jul 27 2014 13:06:55
Writing library : libebml v1.3.0 + libmatroska v1.4.1
Video
ID : 1
Format : AVC
Format/Info : Advanced Video Codec
Format profile : Main@L3.1
Format settings : CABAC / 3 Ref Frames
Format settings, CABAC : Yes
Format settings, Reference fra : 3 frames
Codec ID : V_MPEG4/ISO/AVC
Duration : 1 h 32 min
Bit rate mode : Variable
Bit rate : 3 830 kb/s
Maximum bit rate : 5 745 kb/s
Width : 1 280 pixels
Height : 720 pixels
Display aspect ratio : 16:9
Frame rate mode : Constant
Frame rate : 24.000 FPS
Color space : YUV
Chroma subsampling : 4:2:0
Bit depth : 8 bits
Scan type : Progressive
Bits/(Pixel*Frame) : 0.173
Stream size : 2.43 GiB (81%)
Writing library : x264 core 148 r2715 7e75228
Encoding settings : cabac=1 / ref=3 / deblock=1:0:0 / analyse=0x1:0x111 / me=umh / subme=10 / psy=1 / psy_rd=1.00:0.00 / mixed_ref=1 / me_range=24 / chroma_me=1 / trellis=2 / 8x8dct=0 / cqm=0 / deadzone=21,11 / fast_pskip=1 / chroma_qp_offset=-2 / threads=8 / lookahead_threads=1 / sliced_threads=0 / nr=0 / decimate=1 / interlaced=0 / bluray_compat=0 / stitchable=1 / constrained_intra=0 / bframes=2 / b_pyramid=0 / b_adapt=2 / b_bias=0 / direct=3 / weightb=1 / open_gop=0 / weightp=2 / keyint=250 / keyint_min=24 / scenecut=0 / intra_refresh=0 / rc_lookahead=48 / rc=2pass / mbtree=1 / bitrate=3830 / ratetol=1.0 / qcomp=0.50 / qpmin=6 / qpmax=51 / qpstep=4 / cplxblur=20.0 / qblur=0.5 / vbv_maxrate=5745 / vbv_bufsize=7660 / nal_hrd=vbr / filler=0 / ip_ratio=1.40 / aq=1:1.00
Language : English
Default : Yes
Forced : No
Audio #1
ID : 2
Format : AC-3
Format/Info : Audio Coding 3
Commercial name : Dolby Digital
Codec ID : A_AC3
Duration : 1 h 32 min
Bit rate mode : Constant
Bit rate : 256 kb/s
Channel(s) : 2 channels
Channel layout : L R
Sampling rate : 48.0 kHz
Frame rate : 31.250 FPS (1536 SPF)
Compression mode : Lossy
Stream size : 170 MiB (5%)
Title : Flarrow Films
Language : Russian
Service kind : Complete Main
Default : Yes
Forced : No
Audio #2
ID : 3
Format : AC-3
Format/Info : Audio Coding 3
Commercial name : Dolby Digital
Codec ID : A_AC3
Duration : 1 h 32 min
Bit rate mode : Constant
Bit rate : 640 kb/s
Channel(s) : 6 channels
Channel layout : L R C LFE Ls Rs
Sampling rate : 48.0 kHz
Frame rate : 31.250 FPS (1536 SPF)
Compression mode : Lossy
Stream size : 424 MiB (14%)
Language : English
Service kind : Complete Main
Default : No
Forced : No
Text #1
ID : 4
Format : UTF-8
Codec ID : S_TEXT/UTF8
Codec ID/Info : UTF-8 Plain Text
Duration : 1 h 31 min
Bit rate : 104 b/s
Count of elements : 1370
Stream size : 70.0 KiB (0%)
Title : Russian
Language : Russian
Default : No
Forced : No
Text #2
ID : 5
Format : UTF-8
Codec ID : S_TEXT/UTF8
Codec ID/Info : UTF-8 Plain Text
Duration : 1 h 27 min
Bit rate : 70 b/s
Count of elements : 1440
Stream size : 45.3 KiB (0%)
Title : English
Language : English
Default : No
Forced : No
Text #3
ID : 6
Format : UTF-8
Codec ID : S_TEXT/UTF8
Codec ID/Info : UTF-8 Plain Text
Duration : 1 h 31 min
Bit rate : 61 b/s
Count of elements : 1313
Stream size : 41.3 KiB (0%)
Title : German
Language : German
Default : No
Forced : No
Text #4
ID : 7
Format : UTF-8
Codec ID : S_TEXT/UTF8
Codec ID/Info : UTF-8 Plain Text
Duration : 1 h 27 min
Bit rate : 60 b/s
Count of elements : 1291
Stream size : 38.7 KiB (0%)
Title : French
Language : French
Default : No
Forced : No
Text #5
ID : 8
Format : UTF-8
Codec ID : S_TEXT/UTF8
Codec ID/Info : UTF-8 Plain Text
Duration : 1 h 27 min
Bit rate : 61 b/s
Count of elements : 1354
Stream size : 39.5 KiB (0%)
Title : Spanish
Language : Spanish
Default : No
Forced : No
Text #6
ID : 9
Format : UTF-8
Codec ID : S_TEXT/UTF8
Codec ID/Info : UTF-8 Plain Text
Duration : 1 h 31 min
Bit rate : 61 b/s
Count of elements : 1399
Stream size : 41.2 KiB (0%)
Title : Italian
Language : Italian
Default : No
Forced : No

Скриншоты


[korsars.pro].t25003.torrent 
Торрент: Зарегистрирован [ 2019-12-19 13:00 ] · D1FBEAAAF8ED125DB40418654A5978541F5F4F07

Скачать .torrent

Размер .torrent файла 16 KB

Статус: проверено
.torrent скачан: 1 раз
Размер: 3,02 GB
Правила
Похожие темы

Вы не зарегистрированы на нашем сайте. Вам доступна для скачивания только часть контента. Чтобы увидеть весь контент сайта, пожалуйста, зарегистрироруйтесь.

У Вас отключен VIP статус, поэтому Вам показывается реклама на сайте. Вы можете поддержать наш ресурс и приобрести VIP статус, тем самым отключив показ рекламы на сайте, а ещё VIP пользователи получают возможность

смотреть фильмы, сериалы и аниме онлайн в HD качестве

(не распространяется на раздел Flarrow Films), а так же получить 5 инвайтов, которыми можно поделиться с друзьями или знакомыми.
[Профиль] [ЛС]
Показать сообщения:    
Ответить на тему

Текущее время: 06-Мар 14:31

Часовой пояс: UTC + 4



Вы не можете начинать темы
Вы не можете отвечать на сообщения
Вы не можете редактировать свои сообщения
Вы не можете удалять свои сообщения
Вы не можете голосовать в опросах
Вы не можете прикреплять файлы к сообщениям
Вы можете скачивать файлы
Анализ сайта korsars.pro Яндекс.Метрика